2013Zone For Latest Downloads

 
     
 
Legal Downloads » Music » Rockets - The Silver Years (2007) [7CD Ltd. Collector's Ed.]
Menu
Home Applications
Games Movies
Music TV Shows
Torrents Graphics

Sitemap

RSS
 
Advanced Search
Last News
Site Info
Top Contributors:
  1    supper88 32766
  2    admin 32671
  3    Whisky 10080
  4    Shark_ 8911
  5    creativelivenew 8706
  6    whathesupa 2799
  7    candymypost 840
  8    hvnteam 629
  9    vuong87 3


Articles:
  This Hour: 0
  Today: 0
  This Month: 40
  All Time: 515636


Torrents:
  Today: 0
  Yesterday: 0
  All Time: 156702


Membership:
  Registered Today :0
  This Hour:0
  This Month:0
  Total:14
  Banned:1

{online}
{inform_torrent}
Friend:
We Recomend
Trend
Trend

Search In Site

Music : Rockets - The Silver Years (2007) [7CD Ltd. Collector's Ed.]
 
http://i60.fastpic.ru/big/2015/0206/a9/be3809161d638db1a41a22618fad41a9.jpg

Rockets - The Silver Years (2007) [7CD Ltd. Collector's Ed.]
EAC Rip | FLAC: Image+Cue+Log | 2.2 Gb | MP3 CBR 320 kbps | 817 Mb | Scans | 598 Mb | TTime: 5:09:01
Genre: Electronic, Space Rock, Synthpop | Label: Recording Arts SA | Cat.№: 7X01

"Rockets were a French space rock band that formed in Paris in 1974. Some of the former members had played together since 1970 in a local band called Crystal. In their most successful era (1977-1982) the line-up comprised vocalist Christian Le Bartz, bassist and vocalist "Little" Gérard L'Her, guitarist and keyboardist Alain Maratrat, drummer and percussionist Alain Groetzinger, and keyboardist Fabrice Quagliotti. The Silver Years is the first box of the Rockets. The complete first 7 albums digitally remastered and sonically enhanced plus 7 rare bonus tracks."

Rockets | Wikipedia

http://i64.fastpic.ru/big/2015/0206/c4/c11b6a34790f079206c133316f2575c4.jpg

FLAC | 331 Mb | MP3 | 121 Mb

CD1: Rockets

01. Presentation (00:41)
02. Apache (The Shadows cover) (04:14)
03. Ballade Sur Mars (02:18)
04. Fils du Ciel (03:06)
05. Future Women (03:43)
06. Terre Larbour (01:09)
07. Le Chemin (03:58)
08. Apesanteur (06:32)
09. Last Space Train (The Spotnicks cover) (03:07)
10. Genese Future (07:35)
11. Future Woman (Long Version) [Renaux] (05:53)
12. Samourai (Bonus track) (03:31)

http://i59.fastpic.ru/big/2015/0206/e5/9227771e41501105d204677cc9770fe5.jpg

FLAC | 276 Mb | MP3 | 103 Mb

CD2: On The Road Again

01. On the Road Again (Canned Heat cover) (08:36)
02. Cosmic Race (04:16)
03. Venus Rapsody (04:20)
04. Space Rock (04:51)
05. Astrolights (06:02)
06. Electro-Voice (03:01)
07. Sci-Fi Boogie (04:22)
08. Rocket Man (Bonus track) (02:50)

http://i57.fastpic.ru/big/2015/0206/25/711534cfdd0ebcc03c53d269ce47e125.jpg

FLAC | 295 Mb | MP3 | 110 Mb

CD3: Plasteroïd

01. Electric Delight (05:10)
02. Astral World (04:25)
03. If You Drive (04:48)
04. Legion of Aliens (03:36)
05. Anastasis (04:37)
06. Cosmic Feeling (05:49)
07. Atlantis Town (04:15)
08. Back to Your Planet (03:58)
09. Don't Be Sad (Bonus track) (04:50)

http://i65.fastpic.ru/big/2015/0206/fd/ed5cdc4973dc9a2be0155fb43eb036fd.jpg

FLAC | 402 Mb | MP3 | 144 Mb

CD4: Live

01. Beta-Gamma (01:17)
02. Anastasis (04:56)
03. Future Woman (07:02)
04. Drums Solo (08:31)
05. Sci-Fi Boogie (03:42)
06. Prologue (02:06)
07. Guitar Visions (04:07)
08. On the Road Again (10:40)
09. Electric Delight (06:12)
10. Atomic Control (Bonus track) (06:58)

http://i68.fastpic.ru/big/2015/0206/80/4c7ac4000915cb167184275dd594eb80.jpg

FLAC | 329 Mb | MP3 | 119 Mb

CD5: Galaxy

01. Galactica (04:49)
02. Mecanic Bionic (04:49)
03. Synthetic Man (04:43)
04. One More Mission (04:17)
05. Universal Band (04:05)
06. Prophecy (04:50)
07. In the Black Hole (04:41)
08. In the Galaxy (05:07)
09. Medley (02:30)
10. Galactica - La Femme de Metal (Bonus track) (04:50)

http://i57.fastpic.ru/big/2015/0206/87/12d4a8e150935b860b2d025678eb8d87.jpg

FLAC | 279 Mb | MP3 | 108 Mb

CD6: Pi 3,14

01. Radiate (04:42)
02. Imagine E.S.P. (05:02)
03. Ziga Ziga 999 (04:03)
04. Hypnotic Reality (03:52)
05. Ideomatic (04:19)
06. Video-Addict (04:56)
07. Astro Storm (05:28)
08. King of the Universe (04:05)
09. When the Fire Dies (Demo Tape from the 'Ghost Album') (Bonus track) (03:46)

http://i64.fastpic.ru/big/2015/0206/3d/df1de91995ed092358340741cf64853d.jpg

FLAC | 307 Mb | MP3 | 113 Mb

CD7: Atomic

01. Atomic (04:05)
02. Some Other Place, Some Other Time (04:49)
03. Star Vision (05:50)
04. Run to the Stars (04:38)
05. Future Game (04:51)
06. Light Speed Junky (03:31)
07. The Martian Way (05:19)
08. Radio Station (05:27)
09. Picture on the Wall (Demo Tape from the 'Ghost Album') (Bonus track) (04:04)

Produced by Claude Lemoine

Notes

Remastered By Davide Rizzatti

Mastered at Eccentric Studio.
Special thanks to Paolo Michelini and Guiseppe Salemi.

* CD1:
Recorded at Studio Société Francaise Du Son - Paris except bonus track. (P) 1976 Studio Société Francaise Du Son - France.
* CD2:
Recorded at Studio Société Francaise Du Son - Paris except bonus track. (P) 1978 Studio Société Francaise Du Son - France.
* CD3:
Recorded at Decca Studios - Paris except bonus track. (P) 1979 Studio Société Francaise Du Son - France.
* CD4:
Recorded at Deirks Mobile Studios except bonus track. (P) 1980 Claude Lemoine.
* CD5:
Recorded at Rockland Studios - Paris except bonus track. (P) 1980 Claude Lemoine.
* CD6:
Recorded at Studio J.Juarés - Paris except bonus track. (P) 1981 Claude Lemoine.
* CD7:
Recorded at Rockland Studios - Paris except bonus track. (P) 1981 Claude Lemoine.

Exact Audio Copy V0.99 prebeta 5 from 4. May 2009

Отчёт EAC об извлечении, выполненном 13. декабря 2014, 18:31

Rockets / The Silver Years: Disc: 1 - Rockets

Дисковод: PIONEER DVD-RW DVR-219L Adapter: 5 ID: 0

Режим чтения : Достоверность
?спользование точного потока : Да
Отключение кэ?а аудио : Да
?спользование указателей C2 : Нет

Коррекция смещения при чтении : 6
Способность читать области Lead-in и Lead-out : Нет
Заполнение пропущенных сэмплов ти?иной : Да
Удаление блоков с ти?иной в начале и конце : Нет
При вычислениях CRC использовались нулевые сэмплы : Да
?нтерфейс : Встроенный Win32-интерфейс для Win NT/2000

Выходной формат : Пользовательский кодировщик
Выбранный битрейт : 1024 kBit/s
Качество : Высокий
Добавление ID3-тэга : Нет
Утилита сжатия : C:\Program Files (x86)\Exact Audio Copy\Flac\flac.exe
Дополнительные параметры : -8 -V -T "ARTIST=%a" -T "TITLE=%t" -T "ALBUM=%g" -T "DATE=%y" -T "TRACKNUMBER=%n" -T "GENRE=%m" -T "COMMENT=EAC FLAC -8" %s

TOC извлечённого CD Трек | Старт | Длительность | Начальный сектор | Конечный сектор
-------
1 | 0:00.00 | 0:41.19 | 0 | 3093
2 | 0:41.19 | 4:14.69 | 3094 | 22212
3 | 4:56.13 | 2:18.42 | 22213 | 32604
4 | 7:14.55 | 3:06.61 | 32605 | 46615
5 | 10:21.41 | 3:43.40 | 46616 | 63380
6 | 14:05.06 | 1:09.25 | 63381 | 68580
7 | 15:14.31 | 3:58.43 | 68581 | 86473
8 | 19:12.74 | 6:31.73 | 86474 | 115871
9 | 25:44.72 | 3:07.69 | 115872 | 129965
10 | 28:52.66 | 7:35.36 | 129966 | 164126
11 | 36:28.27 | 5:53.16 | 164127 | 190617
12 | 42:21.43 | 3:31.39 | 190618 | 206481

Характеристики диапазона извлечения и сообщения об о?ибках

Выбранный диапазон ?мя файла F:\СВО? РЕЛ?ЗЫ\Rockets Discography (All Edition)\Rockets-2007-The Silver Years-7 CD Limited Collector's Edition (Recording Arts)\CD 1-1976-Rockets\Rockets - The Silver Years Disc 1 - Rockets.wav Пиковый уровень 98.8 %
Качество диапазона 100.0 %
CRC теста 39CE5115
CRC копии 39CE5115
Копирование... OK

О?ибок не произо?ло


AccurateRip: сводка

Трек 1 точное извлечение (доверие 5) [33E0C784]
Трек 2 точное извлечение (доверие 6) [08CF18CF]
Трек 3 точное извлечение (доверие 6) [A470E37F]
Трек 4 точное извлечение (доверие 6) [895E6E86]
Трек 5 точное извлечение (доверие 6) [8A7CE37D]
Трек 6 точное извлечение (доверие 5) [528EAF98]
Трек 7 точное извлечение (доверие 5) [2D65F38D]
Трек 8 точное извлечение (доверие 5) [6D01C86A]
Трек 9 точное извлечение (доверие 6) [2734E407]
Трек 10 точное извлечение (доверие 5) [320177C4]
Трек 11 точное извлечение (доверие 5) [FFE4BA79]
Трек 12 точное извлечение (доверие 5) [7A210309]

Все треки извлечены точно

Конец отчёта

Exact Audio Copy V0.99 prebeta 5 from 4. May 2009

Отчёт EAC об извлечении, выполненном 13. декабря 2014, 18:53

The Rockets / The Silver Years: Disc: 2 - On the Road Again

Дисковод: PIONEER DVD-RW DVR-219L Adapter: 5 ID: 0

Режим чтения : Достоверность
?спользование точного потока : Да
Отключение кэ?а аудио : Да
?спользование указателей C2 : Нет

Коррекция смещения при чтении : 6
Способность читать области Lead-in и Lead-out : Нет
Заполнение пропущенных сэмплов ти?иной : Да
Удаление блоков с ти?иной в начале и конце : Нет
При вычислениях CRC использовались нулевые сэмплы : Да
?нтерфейс : Встроенный Win32-интерфейс для Win NT/2000

Выходной формат : Пользовательский кодировщик
Выбранный битрейт : 1024 kBit/s
Качество : Высокий
Добавление ID3-тэга : Нет
Утилита сжатия : C:\Program Files (x86)\Exact Audio Copy\Flac\flac.exe
Дополнительные параметры : -8 -V -T "ARTIST=%a" -T "TITLE=%t" -T "ALBUM=%g" -T "DATE=%y" -T "TRACKNUMBER=%n" -T "GENRE=%m" -T "COMMENT=EAC FLAC -8" %s

TOC извлечённого CD Трек | Старт | Длительность | Начальный сектор | Конечный сектор
-------
1 | 0:00.00 | 8:36.01 | 0 | 38700
2 | 8:36.01 | 4:16.42 | 38701 | 57942
3 | 12:52.43 | 4:20.10 | 57943 | 77452
4 | 17:12.53 | 4:51.52 | 77453 | 99329
5 | 22:04.30 | 6:02.33 | 99330 | 126512
6 | 28:06.63 | 3:01.38 | 126513 | 140125
7 | 31:08.26 | 4:22.52 | 140126 | 159827
8 | 35:31.03 | 2:50.66 | 159828 | 172643

Характеристики диапазона извлечения и сообщения об о?ибках

Выбранный диапазон ?мя файла F:\СВО? РЕЛ?ЗЫ\Rockets Discography (All Edition)\Rockets-2007-The Silver Years-7 CD Limited Collector's Edition (Recording Arts)\CD 2-1978-On The Road Again\The Rockets - The Silver Years Disc 2 - On the Road Again.wav Пиковый уровень 98.8 %
Качество диапазона 100.0 %
CRC теста 1F0F5434
CRC копии 1F0F5434
Копирование... OK

О?ибок не произо?ло


AccurateRip: сводка

Трек 1 точное извлечение (доверие 6) [985204DF]
Трек 2 точное извлечение (доверие 6) [4EA3B812]
Трек 3 точное извлечение (доверие 6) [DED498B5]
Трек 4 точное извлечение (доверие 6) [9654EEC5]
Трек 5 точное извлечение (доверие 5) [D6F454D6]
Трек 6 точное извлечение (доверие 5) [98BB2A83]
Трек 7 точное извлечение (доверие 5) 8A824AD
Трек 8 точное извлечение (доверие 5) [95C3C752]

Все треки извлечены точно

Конец отчёта

Exact Audio Copy V0.99 prebeta 5 from 4. May 2009

Отчёт EAC об извлечении, выполненном 13. декабря 2014, 19:35

The Rockets / The Silver Years: Disc: 3 - Plasteroid

Дисковод: PIONEER DVD-RW DVR-219L Adapter: 5 ID: 0

Режим чтения : Достоверность
?спользование точного потока : Да
Отключение кэ?а аудио : Да
?спользование указателей C2 : Нет

Коррекция смещения при чтении : 6
Способность читать области Lead-in и Lead-out : Нет
Заполнение пропущенных сэмплов ти?иной : Да
Удаление блоков с ти?иной в начале и конце : Нет
При вычислениях CRC использовались нулевые сэмплы : Да
?нтерфейс : Встроенный Win32-интерфейс для Win NT/2000

Выходной формат : Пользовательский кодировщик
Выбранный битрейт : 1024 kBit/s
Качество : Высокий
Добавление ID3-тэга : Нет
Утилита сжатия : C:\Program Files (x86)\Exact Audio Copy\Flac\flac.exe
Дополнительные параметры : -8 -V -T "ARTIST=%a" -T "TITLE=%t" -T "ALBUM=%g" -T "DATE=%y" -T "TRACKNUMBER=%n" -T "GENRE=%m" -T "COMMENT=EAC FLAC -8" %s

TOC извлечённого CD Трек | Старт | Длительность | Начальный сектор | Конечный сектор
-------
1 | 0:00.00 | 5:10.30 | 0 | 23279
2 | 5:10.30 | 4:25.52 | 23280 | 43206
3 | 9:36.07 | 4:48.63 | 43207 | 64869
4 | 14:24.70 | 3:36.26 | 64870 | 81095
5 | 18:01.21 | 4:37.49 | 81096 | 101919
6 | 22:38.70 | 5:49.39 | 101920 | 128133
7 | 28:28.34 | 4:15.02 | 128134 | 147260
8 | 32:43.36 | 3:58.14 | 147261 | 165124
9 | 36:41.50 | 4:50.55 | 165125 | 186929

Характеристики диапазона извлечения и сообщения об о?ибках

Выбранный диапазон ?мя файла F:\СВО? РЕЛ?ЗЫ\Rockets Discography (All Edition)\Rockets-2007-The Silver Years-7 CD Limited Collector's Edition (Recording Arts)\CD 3-1979-Plasteroid\The Rockets - The Silver Years Disc 3 - Plasteroid.wav Пиковый уровень 98.8 %
Качество диапазона 100.0 %
CRC теста AE2FF181
CRC копии AE2FF181
Копирование... OK

О?ибок не произо?ло


AccurateRip: сводка

Трек 1 точное извлечение (доверие 5) A3C4095
Трек 2 точное извлечение (доверие 5) [FD500434]
Трек 3 точное извлечение (доверие 5) [0D6E48C7]
Трек 4 точное извлечение (доверие 5) [A70841DB]
Трек 5 точное извлечение (доверие 5) [0C3136AE]
Трек 6 точное извлечение (доверие 5) [460F6164]
Трек 7 точное извлечение (доверие 5) [97616827]
Трек 8 точное извлечение (доверие 5) [819ED712]
Трек 9 точное извлечение (доверие 4) [935562EE]

Все треки извлечены точно

Конец отчёта

Exact Audio Copy V0.99 prebeta 5 from 4. May 2009

Отчёт EAC об извлечении, выполненном 13. декабря 2014, 19:58

The Rockets / The Silver Years: Disc: 4 - Live

Дисковод: PIONEER DVD-RW DVR-219L Adapter: 5 ID: 0

Режим чтения : Достоверность
?спользование точного потока : Да
Отключение кэ?а аудио : Да
?спользование указателей C2 : Нет

Коррекция смещения при чтении : 6
Способность читать области Lead-in и Lead-out : Нет
Заполнение пропущенных сэмплов ти?иной : Да
Удаление блоков с ти?иной в начале и конце : Нет
При вычислениях CRC использовались нулевые сэмплы : Да
?нтерфейс : Встроенный Win32-интерфейс для Win NT/2000

Выходной формат : Пользовательский кодировщик
Выбранный битрейт : 1024 kBit/s
Качество : Высокий
Добавление ID3-тэга : Нет
Утилита сжатия : C:\Program Files (x86)\Exact Audio Copy\Flac\flac.exe
Дополнительные параметры : -8 -V -T "ARTIST=%a" -T "TITLE=%t" -T "ALBUM=%g" -T "DATE=%y" -T "TRACKNUMBER=%n" -T "GENRE=%m" -T "COMMENT=EAC FLAC -8" %s

TOC извлечённого CD Трек | Старт | Длительность | Начальный сектор | Конечный сектор
-------
1 | 0:00.00 | 1:17.48 | 0 | 5822
2 | 1:17.48 | 4:56.26 | 5823 | 28048
3 | 6:13.74 | 7:02.33 | 28049 | 59731
4 | 13:16.32 | 8:31.01 | 59732 | 98057
5 | 21:47.33 | 3:42.02 | 98058 | 114709
6 | 25:29.35 | 2:06.24 | 114710 | 124183
7 | 27:35.59 | 4:07.44 | 124184 | 142752
8 | 31:43.28 | 10:40.17 | 142753 | 190769
9 | 42:23.45 | 6:12.20 | 190770 | 218689
10 | 48:35.65 | 6:58.43 | 218690 | 250082

Характеристики диапазона извлечения и сообщения об о?ибках

Выбранный диапазон ?мя файла F:\СВО? РЕЛ?ЗЫ\Rockets Discography (All Edition)\Rockets-2007-The Silver Years-7 CD Limited Collector's Edition (Recording Arts)\CD 4-1980-Live\The Rockets - The Silver Years Disc 4 - Live.wav Пиковый уровень 98.9 %
Качество диапазона 100.0 %
CRC теста 3EA4812D
CRC копии 3EA4812D
Копирование... OK

О?ибок не произо?ло


AccurateRip: сводка

Трек 1 точное извлечение (доверие 4) [AB75A1DB]
Трек 2 точное извлечение (доверие 4) [24BF3547]
Трек 3 точное извлечение (доверие 4) [ED53552C]
Трек 4 точное извлечение (доверие 5) [10C51453]
Трек 5 точное извлечение (доверие 4) [E5D79EC7]
Трек 6 точное извлечение (доверие 5) [D7656BBB]
Трек 7 точное извлечение (доверие 5) [69856AC4]
Трек 8 точное извлечение (доверие 5) 4500D19
Трек 9 точное извлечение (доверие 4) [F2A46377]
Трек 10 точное извлечение (доверие 4) [3138D7DB]

Все треки извлечены точно

Конец отчёта

Exact Audio Copy V0.99 prebeta 5 from 4. May 2009

Отчёт EAC об извлечении, выполненном 13. декабря 2014, 20:17

The Rockets / The Silver Years: Disc: 5 - Galaxy

Дисковод: PIONEER DVD-RW DVR-219L Adapter: 5 ID: 0

Режим чтения : Достоверность
?спользование точного потока : Да
Отключение кэ?а аудио : Да
?спользование указателей C2 : Нет

Коррекция смещения при чтении : 6
Способность читать области Lead-in и Lead-out : Нет
Заполнение пропущенных сэмплов ти?иной : Да
Удаление блоков с ти?иной в начале и конце : Нет
При вычислениях CRC использовались нулевые сэмплы : Да
?нтерфейс : Встроенный Win32-интерфейс для Win NT/2000

Выходной формат : Пользовательский кодировщик
Выбранный битрейт : 1024 kBit/s
Качество : Высокий
Добавление ID3-тэга : Нет
Утилита сжатия : C:\Program Files (x86)\Exact Audio Copy\Flac\flac.exe
Дополнительные параметры : -8 -V -T "ARTIST=%a" -T "TITLE=%t" -T "ALBUM=%g" -T "DATE=%y" -T "TRACKNUMBER=%n" -T "GENRE=%m" -T "COMMENT=EAC FLAC -8" %s

TOC извлечённого CD Трек | Старт | Длительность | Начальный сектор | Конечный сектор
-------
1 | 0:00.00 | 4:49.57 | 0 | 21731
2 | 4:49.57 | 4:49.66 | 21732 | 43472
3 | 9:39.48 | 4:43.67 | 43473 | 64764
4 | 14:23.40 | 4:17.58 | 64765 | 84097
5 | 18:41.23 | 4:05.04 | 84098 | 102476
6 | 22:46.27 | 4:50.50 | 102477 | 124276
7 | 27:37.02 | 4:41.43 | 124277 | 145394
8 | 32:18.45 | 5:07.56 | 145395 | 168475
9 | 37:26.26 | 2:29.72 | 168476 | 179722
10 | 39:56.23 | 4:50.57 | 179723 | 201529

Характеристики диапазона извлечения и сообщения об о?ибках

Выбранный диапазон ?мя файла F:\СВО? РЕЛ?ЗЫ\Rockets Discography (All Edition)\Rockets-2007-The Silver Years-7 CD Limited Collector's Edition (Recording Arts)\CD 5-1980-Galaxy\The Rockets - The Silver Years Disc 5 - Galaxy.wav Пиковый уровень 98.8 %
Качество диапазона 99.9 %
CRC теста 7DFAE0BA
CRC копии 7DFAE0BA
Копирование... OK

О?ибок не произо?ло


AccurateRip: сводка

Трек 1 точное извлечение (доверие 6) [4EE91E0E]
Трек 2 точное извлечение (доверие 5) [A07C5F27]
Трек 3 точное извлечение (доверие 6) [66AE7813]
Трек 4 точное извлечение (доверие 6) [322C8E81]
Трек 5 точное извлечение (доверие 5) [26EE8245]
Трек 6 точное извлечение (доверие 6) 0A7AF77
Трек 7 точное извлечение (доверие 6) [C71C8CEB]
Трек 8 точное извлечение (доверие 5) [0ABA52DC]
Трек 9 точное извлечение (доверие 6) [4F731C29]
Трек 10 точное извлечение (доверие 6) [07FF7C24]

Все треки извлечены точно

Конец отчёта

Exact Audio Copy V0.99 prebeta 5 from 4. May 2009

Отчёт EAC об извлечении, выполненном 13. декабря 2014, 20:36

The Rockets / The Silver Years: Disc: 6 - Pi 3.14

Дисковод: PIONEER DVD-RW DVR-219L Adapter: 5 ID: 0

Режим чтения : Достоверность
?спользование точного потока : Да
Отключение кэ?а аудио : Да
?спользование указателей C2 : Нет

Коррекция смещения при чтении : 6
Способность читать области Lead-in и Lead-out : Нет
Заполнение пропущенных сэмплов ти?иной : Да
Удаление блоков с ти?иной в начале и конце : Нет
При вычислениях CRC использовались нулевые сэмплы : Да
?нтерфейс : Встроенный Win32-интерфейс для Win NT/2000

Выходной формат : Пользовательский кодировщик
Выбранный битрейт : 1024 kBit/s
Качество : Высокий
Добавление ID3-тэга : Нет
Утилита сжатия : C:\Program Files (x86)\Exact Audio Copy\Flac\flac.exe
Дополнительные параметры : -8 -V -T "ARTIST=%a" -T "TITLE=%t" -T "ALBUM=%g" -T "DATE=%y" -T "TRACKNUMBER=%n" -T "GENRE=%m" -T "COMMENT=EAC FLAC -8" %s

TOC извлечённого CD Трек | Старт | Длительность | Начальный сектор | Конечный сектор
-------
1 | 0:00.00 | 4:42.07 | 0 | 21156
2 | 4:42.07 | 5:02.00 | 21157 | 43806
3 | 9:44.07 | 4:03.08 | 43807 | 62039
4 | 13:47.15 | 3:52.49 | 62040 | 79488
5 | 17:39.64 | 4:19.37 | 79489 | 98950
6 | 21:59.26 | 4:56.21 | 98951 | 121171
7 | 26:55.47 | 5:28.19 | 121172 | 145790
8 | 32:23.66 | 4:05.17 | 145791 | 164182
9 | 36:29.08 | 3:46.26 | 164183 | 181158

Характеристики диапазона извлечения и сообщения об о?ибках

Выбранный диапазон ?мя файла F:\СВО? РЕЛ?ЗЫ\Rockets Discography (All Edition)\Rockets-2007-The Silver Years-7 CD Limited Collector's Edition (Recording Arts)\CD 6-1981-Pi Greco 3-14\The Rockets - The Silver Years Disc 6 - Pi 3.14.wav Пиковый уровень 98.8 %
Качество диапазона 99.9 %
CRC теста 13AB3D47
CRC копии 13AB3D47
Копирование... OK

О?ибок не произо?ло


AccurateRip: сводка

Трек 1 точное извлечение (доверие 4) [6433AEF4]
Трек 2 точное извлечение (доверие 4) [494C80C9]
Трек 3 точное извлечение (доверие 4) [81161164]
Трек 4 точное извлечение (доверие 4) [49A532C6]
Трек 5 точное извлечение (доверие 4) [E1D58E9C]
Трек 6 точное извлечение (доверие 4) [8385E983]
Трек 7 точное извлечение (доверие 4) [232B9F25]
Трек 8 точное извлечение (доверие 4) [6FE2C921]
Трек 9 точное извлечение (доверие 4) [D75A54F0]

Все треки извлечены точно

Конец отчёта

Exact Audio Copy V0.99 prebeta 5 from 4. May 2009

Отчёт EAC об извлечении, выполненном 13. декабря 2014, 20:54

The Rockets / The Silver Years: Disc: 7 - Atomic

Дисковод: PIONEER DVD-RW DVR-219L Adapter: 5 ID: 0

Режим чтения : Достоверность
?спользование точного потока : Да
Отключение кэ?а аудио : Да
?спользование указателей C2 : Нет

Коррекция смещения при чтении : 6
Способность читать области Lead-in и Lead-out : Нет
Заполнение пропущенных сэмплов ти?иной : Да
Удаление блоков с ти?иной в начале и конце : Нет
При вычислениях CRC использовались нулевые сэмплы : Да
?нтерфейс : Встроенный Win32-интерфейс для Win NT/2000

Выходной формат : Пользовательский кодировщик
Выбранный битрейт : 1024 kBit/s
Качество : Высокий
Добавление ID3-тэга : Нет
Утилита сжатия : C:\Program Files (x86)\Exact Audio Copy\Flac\flac.exe
Дополнительные параметры : -8 -V -T "ARTIST=%a" -T "TITLE=%t" -T "ALBUM=%g" -T "DATE=%y" -T "TRACKNUMBER=%n" -T "GENRE=%m" -T "COMMENT=EAC FLAC -8" %s

TOC извлечённого CD Трек | Старт | Длительность | Начальный сектор | Конечный сектор
-------
1 | 0:00.00 | 4:05.35 | 0 | 18409
2 | 4:05.35 | 4:49.34 | 18410 | 40118
3 | 8:54.69 | 5:50.32 | 40119 | 66400
4 | 14:45.26 | 4:38.20 | 66401 | 87270
5 | 19:23.46 | 4:50.72 | 87271 | 109092
6 | 24:14.43 | 3:31.31 | 109093 | 124948
7 | 27:45.74 | 5:19.65 | 124949 | 148938
8 | 33:05.64 | 5:26.72 | 148939 | 173460
9 | 38:32.61 | 4:04.31 | 173461 | 191791

Характеристики диапазона извлечения и сообщения об о?ибках

Выбранный диапазон ?мя файла F:\СВО? РЕЛ?ЗЫ\Rockets Discography (All Edition)\Rockets-2007-The Silver Years-7 CD Limited Collector's Edition (Recording Arts)\CD 7-1982-Atomic\The Rockets - The Silver Years Disc 7 - Atomic.wav Пиковый уровень 98.8 %
Качество диапазона 99.9 %
CRC теста 4B4427A5
CRC копии 4B4427A5
Копирование... OK

О?ибок не произо?ло


AccurateRip: сводка

Трек 1 точное извлечение (доверие 4) [7D23C4C1]
Трек 2 точное извлечение (доверие 4) [825BEDEE]
Трек 3 точное извлечение (доверие 4) [7281A883]
Трек 4 точное извлечение (доверие 4) [E569DBD8]
Трек 5 точное извлечение (доверие 5) [99A379A5]
Трек 6 точное извлечение (доверие 4) [E5869E0F]
Трек 7 точное извлечение (доверие 4) [5D3A9926]
Трек 8 точное извлечение (доверие 4) [54DD0A9B]
Трек 9 точное извлечение (доверие 4) [DBF91B02]

Все треки извлечены точно

Конец отчёта

Many thanks to the original uploader: ziga999
DOWNLOAD LINKS:
Buy Premium To Support Me & Get Resumable Support & Max Speed


Links are Interchangeable - No Password - Single Extraction

 
 
 
Dear visitor, you went to the site as an unregistered user. We encourage you to register or enter the site under your name.
 
   
 
 (Votes #: 0)