2013Zone For Latest Downloads

 
     
 
Legal Downloads » Music » Justin Sullivan & Friends - Tales Of The Road (2004)
Menu
Home Applications
Games Movies
Music TV Shows
Torrents Graphics

Sitemap

RSS
 
Advanced Search
Last News
Site Info
Top Contributors:
  1    supper88 32766
  2    admin 32671
  3    Whisky 10080
  4    Shark_ 8911
  5    creativelivenew 8706
  6    whathesupa 2799
  7    candymypost 840
  8    hvnteam 629
  9    vuong87 3


Articles:
  This Hour: 0
  Today: 0
  This Month: 40
  All Time: 515636


Torrents:
  Today: 0
  Yesterday: 0
  All Time: 156702


Membership:
  Registered Today :0
  This Hour:0
  This Month:0
  Total:14
  Banned:1

{online}
{inform_torrent}
Friend:
We Recomend
Trend
Trend

Search In Site

Music : Justin Sullivan & Friends - Tales Of The Road (2004)
 
http://i63.fastpic.ru/big/2015/0206/9b/c49bbb30efca4642c950b5c5ae72459b.jpg

Justin Sullivan & Friends - Tales Of The Road (2004)
Rock | 1cd | EAC Rip | Flac + Cue + Log | covers
Attack Attack, ATK2309 | rel: 2004 | 430Mb

Basically a recording of New Model Army's semi-acoustic show that toured the U.S. in Spring 2004. The shows were so powerful that you didn't even miss the rest of the band. This CD captures the music as if you are there. There are NMA songs as well as Justin's solo stuff, and all of it is awesome. Besides, there is no such thing as a "not so good" NMA or Justin Sullivan album.
~Amazon

Track listing
01. Tales Of The Road (4:32)
02. Heroes (4:11)
03. Afternoon Song (2:47)
04. Ocean Rising (6:31)
05. Lurhstaap (3:46)
06. Headlights (5:06)
07. Masters Of War (4:10)
08. These Words (3:41)
09. Drummy B (4:23)
10. All Of This (3:08)
11. Stranger (3:32)
12. Inheritance (4:19)
13. 225 (6:51)
14. Someone Like Jesus (5:37)
~ (62:32)

Personnel
- Acoustic Guitar, Vocals - Justin Sullivan
- Electric Guitar, Keyboards, Vocals - Dean White
- Percussion, Vocals, Mixed By - Michael Dean

Exact Audio Copy V0.99 prebeta 5 from 4. May 2009

EAC extraction logfile from 8. August 2009, 17:09

Justin Sullivan & Friends / Tales Of The Road

Used drive : TSSTcorpCDDVDW SE-S224Q Adapter: 1 ID: 0

Read mode : Secure
Utilize accurate stream : Yes
Defeat audio cache : Yes
Make use of C2 pointers : No

Read offset correction : 6
Overread into Lead-In and Lead-Out : No
Fill up missing offset samples with silence : Yes
Delete leading and trailing silent blocks : No
Null samples used in CRC calculations : Yes
Used interface : Native Win32 interface for Win NT & 2000
Gap handling : Appended to previous track

Used output format : User Defined Encoder
Selected bitrate : 128 kBit/s
Quality : High
Add ID3 tag : No
Command line compressor : C:\Program Files (x86)\FLAC\flac.exe
Additional command line options : -8 -V -T "ARTIST=%a" -T "TITLE=%t" -T "ALBUM=%g" -T "DATE=%y" -T "TRACKNUMBER=%n" -T "GENRE=%m" -T "COMMENT=EAC FLAC -8" %s

TOC of the extracted CD Track | Start | Length | Start sector | End sector
-----------
1 | 0:00.00 | 4:31.67 | 0 | 20391
2 | 4:31.67 | 4:10.46 | 20392 | 39187
3 | 8:42.38 | 2:46.45 | 39188 | 51682
4 | 11:29.08 | 6:31.12 | 51683 | 81019
5 | 18:00.20 | 3:45.38 | 81020 | 97932
6 | 21:45.58 | 5:06.15 | 97933 | 120897
7 | 26:51.73 | 4:09.52 | 120898 | 139624
8 | 31:01.50 | 3:41.11 | 139625 | 156210
9 | 34:42.61 | 4:23.18 | 156211 | 175953
10 | 39:06.04 | 3:08.00 | 175954 | 190053
11 | 42:14.04 | 3:31.67 | 190054 | 205945
12 | 45:45.71 | 4:18.41 | 205946 | 225336
13 | 50:04.37 | 6:50.40 | 225337 | 256126
14 | 56:55.02 | 5:36.68 | 256127 | 281394

Track 1 Filename H:\Temp\01 - Tales Of The Road.wav Pre-gap length 0:00:02.00 Peak level 98.2 %
Track quality 100.0 %
Test CRC F5416171
Copy CRC F5416171
Accurately ripped (confidence 4) [CCE14074]
Copy OK

Track 2 Filename H:\Temp\02 - Heroes.wav Peak level 97.8 %
Track quality 100.0 %
Test CRC C57A900A
Copy CRC C57A900A
Accurately ripped (confidence 4) [7509CA9B]
Copy OK

Track 3 Filename H:\Temp\03 - Afternoon Song.wav Peak level 99.9 %
Track quality 100.0 %
Test CRC 1D633A2F
Copy CRC 1D633A2F
Accurately ripped (confidence 4) [9157FC5C]
Copy OK

Track 4 Filename H:\Temp\04 - Ocean Rising.wav Peak level 98.5 %
Track quality 99.9 %
Test CRC 5D73C8AC
Copy CRC 5D73C8AC
Accurately ripped (confidence 4) [4A8C2571]
Copy OK

Track 5 Filename H:\Temp\05 - Lurhstaap.wav Peak level 99.3 %
Track quality 100.0 %
Test CRC BBC9E867
Copy CRC BBC9E867
Accurately ripped (confidence 4) [FBA7B9B5]
Copy OK

Track 6 Filename H:\Temp\06 - Headlights.wav Peak level 95.7 %
Track quality 100.0 %
Test CRC BA7EBACB
Copy CRC BA7EBACB
Accurately ripped (confidence 4) [D0F80AD2]
Copy OK

Track 7 Filename H:\Temp\07 - Masters Of War.wav Peak level 100.0 %
Track quality 99.9 %
Test CRC 19F76604
Copy CRC 19F76604
Accurately ripped (confidence 4) [75125029]
Copy OK

Track 8 Filename H:\Temp\08 - These Words.wav Peak level 96.4 %
Track quality 99.9 %
Test CRC 488DAAA9
Copy CRC 488DAAA9
Accurately ripped (confidence 4) 8E8D8A8
Copy OK

Track 9 Filename H:\Temp\09 - Drummy B.wav Peak level 90.4 %
Track quality 100.0 %
Test CRC 5A5DDBF9
Copy CRC 5A5DDBF9
Accurately ripped (confidence 4) [348AB021]
Copy OK

Track 10 Filename H:\Temp\10 - All Of This.wav Peak level 96.3 %
Track quality 100.0 %
Test CRC 8334E624
Copy CRC 8334E624
Accurately ripped (confidence 4) [2AF8C76C]
Copy OK

Track 11 Filename H:\Temp\11 - Stranger.wav Peak level 98.9 %
Track quality 100.0 %
Test CRC 0CC0AD17
Copy CRC 0CC0AD17
Accurately ripped (confidence 4) [1876DCD7]
Copy OK

Track 12 Filename H:\Temp\12 - Inheritance.wav Peak level 88.0 %
Track quality 100.0 %
Test CRC EDA736CD
Copy CRC EDA736CD
Accurately ripped (confidence 4) [5F680764]
Copy OK

Track 13 Filename H:\Temp\13 - 225.wav Peak level 99.3 %
Track quality 100.0 %
Test CRC CDEC4A17
Copy CRC CDEC4A17
Accurately ripped (confidence 4) [D574C8B3]
Copy OK

Track 14 Filename H:\Temp\14 - Someone Like Jesus.wav Peak level 88.2 %
Track quality 100.0 %
Test CRC BD24EBA9
Copy CRC BD24EBA9
Accurately ripped (confidence 3) [3BEB3BF1]
Copy OK

All tracks accurately ripped

No errors occurred

End of status report

[CUETools log; Date: 2015.02.04. 19:54:40; Version: 2.1.4]
[CTDB TOCID: NGo3B8HfL0adClxutfvmwwKM9Mc-] found.
Track | CTDB Status
1 | (5/5) Accurately ripped
2 | (5/5) Accurately ripped
3 | (5/5) Accurately ripped
4 | (5/5) Accurately ripped
5 | (5/5) Accurately ripped
6 | (5/5) Accurately ripped
7 | (5/5) Accurately ripped
8 | (5/5) Accurately ripped
9 | (5/5) Accurately ripped
10 | (5/5) Accurately ripped
11 | (5/5) Accurately ripped
12 | (5/5) Accurately ripped
13 | (5/5) Accurately ripped
14 | (5/5) Accurately ripped
[AccurateRip ID: 001f27a3-014c67d6-b70ea70e] found.
Track [ CRC | V2 ] Status
01 [cce14074|6bfcf800] (10+00/10) Accurately ripped
02 [7509ca9b|a1083a9e] (10+00/10) Accurately ripped
03 [9157fc5c|3c3dbddf] (10+00/10) Accurately ripped
04 [4a8c2571|f6d4f052] (10+00/10) Accurately ripped
05 [fba7b9b5|bec51436] (10+00/10) Accurately ripped
06 [d0f80ad2|e77208d7] (08+00/08) Accurately ripped
07 [75125029|6753d487] (09+00/09) Accurately ripped
08 8e8d8a8|e4ad313c (09+00/09) Accurately ripped
09 [348ab021|7d6cbbfe] (09+00/09) Accurately ripped
10 [2af8c76c|ba42e30f] (10+00/10) Accurately ripped
11 [1876dcd7|6f4a82eb] (10+00/10) Accurately ripped
12 [5f680764|7342fb2c] (10+00/10) Accurately ripped
13 [d574c8b3|e15aad6a] (09+00/09) Accurately ripped
14 [3beb3bf1|d1849070] (09+00/09) Accurately ripped

Track Peak [ CRC32 ] [W/O NULL] [ LOG ]
-- 100,0 [70F19946] [2A460C98]
01 98,2 [F5416171] [4D26F9BC] CRC32
02 97,8 [C57A900A] [E7859831] CRC32
03 99,9 [1D633A2F] [6F4C2D8C] CRC32
04 98,5 [5D73C8AC] [C73CE082] CRC32
05 99,3 BC9E867 [E374FDF7] CRC32
06 95,7 A7EBACB [EDE04361] CRC32
07 100,0 [19F76604] E9D675E CRC32
08 96,4 [488DAAA9] [43C56CB1] CRC32
09 90,4 [5A5DDBF9] [454DD1D7] CRC32
10 96,3 [8334E624] [D0A6467C] CRC32
11 98,9 [0CC0AD17] [33144F01] CRC32
12 88,0 [EDA736CD] [5E863F31] CRC32
13 99,3 [CDEC4A17] [AD93DD4F] CRC32
14 88,2 D24EBA9 [3F2EC6BE] CRC32

Thx to lomik70
DOWNLOAD LINKS:
Buy Premium To Support Me & Get Resumable Support & Max Speed


Links are Interchangeable - No Password - Single Extraction

 
 
 
Dear visitor, you went to the site as an unregistered user. We encourage you to register or enter the site under your name.
 
   
 
 (Votes #: 0)