2013Zone For Latest Downloads

 
     
 
Legal Downloads » Music » Thorbjørn Risager And The Black Tornado - Too Many Roads (2014)
Menu
Home Applications
Games Movies
Music TV Shows
Torrents Graphics

Sitemap

RSS
 
Advanced Search
Last News
Site Info
Top Contributors:
  1    supper88 32766
  2    admin 32671
  3    Whisky 10080
  4    Shark_ 8911
  5    creativelivenew 8706
  6    whathesupa 2799
  7    candymypost 840
  8    hvnteam 629
  9    vuong87 3


Articles:
  This Hour: 0
  Today: 0
  This Month: 40
  All Time: 515636


Torrents:
  Today: 0
  Yesterday: 0
  All Time: 156702


Membership:
  Registered Today :0
  This Hour:0
  This Month:0
  Total:14
  Banned:1

{online}
{inform_torrent}
Friend:
We Recomend
Trend
Trend

Search In Site

Music : Thorbjørn Risager And The Black Tornado - Too Many Roads (2014)
 
http://i66.fastpic.ru/big/2015/0206/ee/eabb9c97cc2b8cc8011e595dc633cfee.jpg

Thorbjørn Risager And The Black Tornado - Too Many Roads (2014)
EAC Rip | FLAC (Img) + Cue + Log ~ 363 Mb | MP3 CBR320 ~ 137 Mb
Scans Included (JPG, 600 dpi) | RAR 5% Recovery
Blues, Rock, Soul | Ruf Records #RUF 1200

"This is one of Denmark's hardest working and most sought after bands. It has played as many as a hundred live gigs a year for the past ten years, has become one of the country's hottest music exports, and has released seven albums. Now Thorbjørn Risager & The Black Tornado (formerly the Thorbjørn Risager Band) is releasing its eighth album, Too Many Roads. "Sometimes a singer's voice just stands out and forces you to listen. Take one part Ray Charles, one part Bob Seger, and one part Joe Cocker and you may have the vocal instrument of Denmark's Thorbjørn Risager. It's only a matter of time before the secret's out on this guy. Bottom line: he's dynamite. Don't sleep on this one!" ~ Dylann DeAnna, BluesWax"

~ Official website

http://i64.fastpic.ru/big/2015/0206/e2/6027d249587bde497b8dc9ea984f4fe2.jpg

Track List:

01. If You Wanna Leave [0:04:16.05]
02. Too Many Roads [0:03:25.51]
03. China Gate [0:04:03.68]
04. Paradise [0:04:29.29]
05. Drowning [0:04:23.69]
06. Backseat Driver [0:03:54.40]
07. Through The Tears [0:04:30.28]
08. High Rolling [0:04:10.36]
09. Long Forgotten Track [0:04:28.66]
10. Red Hot And Blue [0:03:52.50]
11. Rich Man [0:03:38.56]
12. Play On [0:03:07.17]

Exact Audio Copy V1.0 beta 3 from 29. August 2011

Отчёт EAC об извлечении, выполненном 29. декабря 2014, 17:21

Thorbjorn Risager And The Black Tornado / Too Many Roads

Дисковод: PLEXTOR DVDR PX-880SA Adapter: 0 ID: 2

Режим чтения : Достоверность
?спользование точного потока : Да
Отключение кэ?а аудио : Да
?спользование указателей C2 : Нет

Коррекция смещения при чтении : 6
Способность читать области Lead-in и Lead-out : Нет
Заполнение пропущенных сэмплов ти?иной : Да
Удаление блоков с ти?иной в начале и конце : Нет
При вычислениях CRC использовались нулевые сэмплы : Да
?нтерфейс : Встроенный Win32-интерфейс для Win NT/2000

Выходной формат : Внутренние WAV-операции
Формат сэмплов : 44.100 Гц; 16 бит; стерео

TOC извлечённого CD Трек | Старт | Длительность | Начальный сектор | Конечный сектор
-------
1 | 0:00.00 | 4:16.05 | 0 | 19204
2 | 4:16.05 | 3:25.51 | 19205 | 34630
3 | 7:41.56 | 4:03.68 | 34631 | 52923
4 | 11:45.49 | 4:29.29 | 52924 | 73127
5 | 16:15.03 | 4:23.69 | 73128 | 92921
6 | 20:38.72 | 3:54.40 | 92922 | 110511
7 | 24:33.37 | 4:30.28 | 110512 | 130789
8 | 29:03.65 | 4:10.36 | 130790 | 149575
9 | 33:14.26 | 4:28.66 | 149576 | 169741
10 | 37:43.17 | 3:52.50 | 169742 | 187191
11 | 41:35.67 | 3:38.56 | 187192 | 203597
12 | 45:14.48 | 3:07.17 | 203598 | 217639

Характеристики диапазона извлечения и сообщения об о?ибках

Выбранный диапазон ?мя файла M:\СВО?\Thorbjorn Risager And The Black Tornado - Too Many Roads - 2014\Thorbjorn Risager And The Black Tornado - Too Many Roads.wav Пиковый уровень 99.1 %
Скорость извлечения 8.3 X
Качество диапазона 100.0 %
CRC теста 98770E96
CRC копии 98770E96
Копирование... OK

О?ибок не произо?ло


AccurateRip: сводка

Трек 1 : извлечено точно (доверие 11) [F874D72C] (AR v2)
Трек 2 : извлечено точно (доверие 11) [E594DD91] (AR v2)
Трек 3 : извлечено точно (доверие 11) [EEAAF989] (AR v2)
Трек 4 : извлечено точно (доверие 11) [79B04CE4] (AR v2)
Трек 5 : извлечено точно (доверие 11) [3B9E6124] (AR v2)
Трек 6 : извлечено точно (доверие 11) [26E63615] (AR v2)
Трек 7 : извлечено точно (доверие 11) [3DFF182E] (AR v2)
Трек 8 : извлечено точно (доверие 11) [1846EE19] (AR v2)
Трек 9 : извлечено точно (доверие 11) [91376CC3] (AR v2)
Трек 10 : извлечено точно (доверие 11) [704D97C8] (AR v2)
Трек 11 : извлечено точно (доверие 11) [95957B42] (AR v2)
Трек 12 : извлечено точно (доверие 11) [6C0876AC] (AR v2)

Все треки извлечены точно

Конец отчёта

==== Контрольная сумма отчёта 4E7CA6AE86A56CE727C59EE5EEADC78322C06EDD8EEEA9FF715090EA712278C5 ====

foobar2000 1.2.6 / Dynamic Range Meter 1.1.1
log date: 2015-02-04 11:10:45

--
Analyzed: Thorbjoern Risager And The Black Tornado / Too Many Roads
--

DR Peak RMS Duration Track
--
DR5 -0.11 dB -6.19 dB 4:16 01-If You Wanna Leave
DR6 -0.11 dB -6.99 dB 3:26 02-Too Many Roads
DR8 -0.11 dB -10.94 dB 4:04 03-China Gate
DR6 -0.09 dB -6.98 dB 4:29 04-Paradise
DR7 -0.11 dB -8.37 dB 4:24 05-Drowning
DR6 -0.11 dB -7.32 dB 3:55 06-Backseat Driver
DR6 -0.10 dB -7.83 dB 4:30 07-Through The Tears
DR5 -0.08 dB -7.07 dB 4:10 08-High Rolling
DR6 -0.11 dB -7.76 dB 4:29 09-Long Forgotten Track
DR6 -0.10 dB -8.05 dB 3:53 10-Red Hot And Blue
DR8 -0.10 dB -8.60 dB 3:39 11-Rich Man
DR7 -0.10 dB -7.85 dB 3:07 12-Play On
--

Number of tracks: 12
Official DR value: DR6

Samplerate: 44100 Hz
Channels: 2
Bits per sample: 16
Bitrate: 940 kbps
Codec: FLAC

[CUETools log; Date: 04.02.2015 11:12:34; Version: 2.1.5]
[CTDB TOCID: _MOPqXHXc2LDayDVBv1XPu8k9Gw-] found.
Track | CTDB Status
1 | (6/6) Accurately ripped
2 | (6/6) Accurately ripped
3 | (6/6) Accurately ripped
4 | (6/6) Accurately ripped
5 | (6/6) Accurately ripped
6 | (6/6) Accurately ripped
7 | (6/6) Accurately ripped
8 | (6/6) Accurately ripped
9 | (6/6) Accurately ripped
10 | (6/6) Accurately ripped
11 | (6/6) Accurately ripped
12 | (6/6) Accurately ripped
[AccurateRip ID: 00160044-00cd9220-ba0b550c] found.
Track [ CRC | V2 ] Status
01 [1740aace|f874d72c] (00+13/13) Accurately ripped
02 [7e4a9c84|e594dd91] (00+13/13) Accurately ripped
03 02fa6f5|eeaaf989 (00+13/13) Accurately ripped
04 [eb2f878f|79b04ce4] (00+13/13) Accurately ripped
05 [8220a9d6|3b9e6124] (00+13/13) Accurately ripped
06 [abd56d0d|26e63615] (00+13/13) Accurately ripped
07 [d3ba6ebb|3dff182e] (00+13/13) Accurately ripped
08 [724a9a1a|1846ee19] (00+13/13) Accurately ripped
09 [6dd69e72|91376cc3] (00+13/13) Accurately ripped
10 [16c6119f|704d97c8] (00+13/13) Accurately ripped
11 [6e243e78|95957b42] (00+13/13) Accurately ripped
12 [47fd27b2|6c0876ac] (00+13/13) Accurately ripped

Track Peak [ CRC32 ] [W/O NULL] [ LOG ]
-- 99,1 [98770E96] [9B4E62B4] CRC32
01 98,7 [6FA89742] [828B5491]
02 98,7 [D705E5B4] [61FE4571]
03 98,7 [0F4DAD47] [A1E793B8]
04 99,0 [A678934B] [952504E3]
05 98,7 [1690F78E] [59D6FFF2]
06 98,7 [80185D76] [6ED6DBF9]
07 98,8 [F03E2508] [611AC51A]
08 99,1 [4B51D90D] [3B8DADC0]
09 98,7 [1A32ABF8] 5A6DC62
10 98,8 C78E2E8 [E4D9CB36]
11 98,8 [7109F3B2] [F7054E6D]
12 98,8 [7C4851E4] [48D5A6A3]

http://i57.fastpic.ru/big/2015/0206/12/5b2c5a00fd200a090192af1618b5cf12.jpg


DOWNLOAD LINKS:
Buy Premium To Support Me & Get Resumable Support & Max Speed


Links are Interchangeable - No Password - Single Extraction

 
 
 
Dear visitor, you went to the site as an unregistered user. We encourage you to register or enter the site under your name.
 
   
 
 (Votes #: 0)