2013Zone For Latest Downloads

 
     
 
Legal Downloads » Music » UFO - Ain't Misbehavin' (1988)
Menu
Home Applications
Games Movies
Music TV Shows
Torrents Graphics

Sitemap

RSS
 
Advanced Search
Last News
Site Info
Top Contributors:
  1    supper88 32766
  2    admin 32693
  3    Whisky 10080
  4    Shark_ 8911
  5    creativelivenew 8706
  6    whathesupa 2799
  7    candymypost 840
  8    hvnteam 629
  9    vuong87 3


Articles:
  This Hour: 0
  Today: 0
  This Month: 10
  All Time: 515561


Torrents:
  Today: 0
  Yesterday: 0
  All Time: 156684


Membership:
  Registered Today :0
  This Hour:0
  This Month:0
  Total:14
  Banned:1

{online}
{inform_torrent}
Friend:
We Recomend
Trend
Trend
Ad1

Search In Site

Music : UFO - Ain't Misbehavin' (1988)
 
http://i67.fastpic.ru/big/2015/0217/34/0682533e60b7a2f6b13970583bacf634.jpg

UFO - Ain't Misbehavin' (1988)
Rock | EP | EAC Rip | Flac + Cue + Log | covers
Metal Blade Records, 7 73404-2 | rel: 1988 | 210Mb

Issued as a mini disc, UFO's seven song Ain't Misbehavin' studio recording was pulled together in response to the group's low carb Misdeamenor LP. Following UFO's tour of the states in 1987, in support of Misdemeanor, the group used ideas from the tour as a basis for their next project. In an effort to get back to an harder edge, the revamped line-up of high flyers took to a no frills recording approach. Phil Mogg and crew managed to lay out a raw rocker in the album opener, "Between A Rock And A Hard Place", which is an energetic cut and shows off the unique vocals of the group's veteran front man.
Unfortunately UFO peak with the first track, as the sound slips into a cleaner mode on "Another Saturday Night", and the set continues with a few other melodic numbers clouding the effort. Meanwhile "Rock Boyz, Rock" is cliche riden rock that is beneath the legendary UFO.
Treated as a one off, lets-give-the-fans-something-to-chew-on, Ain't Misbehavin' is worth a listen, but beyond the curious play this quicky seven song disc pales when stacked up agianst the stellar back catalog of UFO recordings. ~rateyourmusic

Track listing
01. Between A Rock And A Hard Place (3:50)
02. Another Saturday Night (4:39)
03. At War With The World (3:04)
04. Hunger In The Night (4:11)
05. Easy Money (3:37)
06. Rock Boyz, Rock (3:20)
07. Lonely Cities (Of The Heart) (4:13)
~ (26:53)

Personnel
- Phil Mogg - vocals
- Tommy McClendon (aka Atomik Tommy M) - guitar
- Paul Gray - bass
- Jim Simpson - drums

Exact Audio Copy V1.0 beta 3 from 29. August 2011

EAC extraction logfile from 4. October 2013, 2:10

UFO / Ain't Misbehavin'

Used drive : Optiarc DVD-ROM DDU1675S Adapter: 3 ID: 0

Read mode : Secure
Utilize accurate stream : Yes
Defeat audio cache : Yes
Make use of C2 pointers : No

Read offset correction : 6
Overread into Lead-In and Lead-Out : No
Fill up missing offset samples with silence : Yes
Delete leading and trailing silent blocks : No
Null samples used in CRC calculations : Yes
Used interface : Native Win32 interface for Win NT & 2000

Used output format : User Defined Encoder
Selected bitrate : 1024 kBit/s
Quality : High
Add ID3 tag : No
Command line compressor : C:\Program Files (x86)\Exact Audio Copy\Flac\flac.exe
Additional command line options : -V -8 -T "Date=%year%" -T "Genre=%genre%" %source%

TOC of the extracted CD Track | Start | Length | Start sector | End sector
-----------
1 | 0:00.00 | 3:49.52 | 0 | 17226
2 | 3:49.52 | 4:39.25 | 17227 | 38176
3 | 8:29.02 | 3:03.48 | 38177 | 51949
4 | 11:32.50 | 4:11.20 | 51950 | 70794
5 | 15:43.70 | 3:37.10 | 70795 | 87079
6 | 19:21.05 | 3:19.45 | 87080 | 102049
7 | 22:40.50 | 4:12.40 | 102050 | 120989

Range status and errors

Selected range Filename F:\Torrent\# MY\# Подготовка раздач\UFO - Дискография\1988 - Ain't Misbehavin' (Metal Blade Records, 7 73404-2)\UFO - Ain't Misbehavin'.wav Peak level 98.4 %
Extraction speed 6.9 X
Range quality 99.9 %
Test CRC 3D363E76
Copy CRC 3D363E76
Copy OK

No errors occurred


AccurateRip summary

Track 1 accurately ripped (confidence 2) [8F777157] (AR v2)
Track 2 accurately ripped (confidence 2) [677BF953] (AR v2)
Track 3 accurately ripped (confidence 2) [03E5A837] (AR v2)
Track 4 accurately ripped (confidence 2) [27932D9A] (AR v2)
Track 5 accurately ripped (confidence 2) [F277EC58] (AR v2)
Track 6 accurately ripped (confidence 2) EEEBB85 (AR v2)
Track 7 accurately ripped (confidence 2) [1D6A6839] (AR v2)

All tracks accurately ripped

End of status report

---- CUETools DB Plugin V2.1.4

[CTDB TOCID: 7zvL3jIoN0S_LsxPw1CSkdkhvoE-] found
Submit result: 7zvL3jIoN0S_LsxPw1CSkdkhvoE- has been confirmed
Track | CTDB Status
1 | (2/2) Accurately ripped
2 | (2/2) Accurately ripped
3 | (2/2) Accurately ripped
4 | (2/2) Accurately ripped
5 | (1/2) Accurately ripped, or (1/2) differs in 5 samples @01:08:46
6 | (2/2) Accurately ripped
7 | (1/2) Accurately ripped, or (1/2) differs in 8 samples @00:55:53,03:07:23

==== Log checksum 2794CB24962316F4B7FC903E7E8E23C3429DC78192883057A01006710F7D7343 ====

[CUETools log; Date: 2015.02.12. 15:40:59; Version: 2.1.4]
[CTDB TOCID: 7zvL3jIoN0S_LsxPw1CSkdkhvoE-] found.
Track | CTDB Status
1 | (4/4) Accurately ripped
2 | (4/4) Accurately ripped
3 | (4/4) Accurately ripped
4 | (4/4) Accurately ripped
5 | (3/4) Accurately ripped, or (1/4) differs in 5 samples @01:08:46
6 | (4/4) Accurately ripped
7 | (3/4) Accurately ripped, or (1/4) differs in 8 samples @00:55:53,03:07:23
[AccurateRip ID: 0007734d-002c7cb7-4b064d07] found.
Track [ CRC | V2 ] Status
01 [f18506b5|8f777157] (4+3/7) Accurately ripped
02 13b559a|677bf953 (4+3/7) Accurately ripped
03 7e6d562|03e5a837 (4+3/7) Accurately ripped
04 [76ccfd00|27932d9a] (4+3/7) Accurately ripped
05 [920a15be|f277ec58] (3+3/6) Accurately ripped
06 [82faa954|beeebb85] (4+3/7) Accurately ripped
07 [7e90a3d3|1d6a6839] (4+3/7) Accurately ripped

Track Peak [ CRC32 ] [W/O NULL] [ LOG ]
-- 98,4 [3D363E76] [E79BE782] CRC32
01 87,8 [D618BA11] [EA15C7B6]
02 98,4 [CF8D6553] [CF44C9A8]
03 70,9 [01DA186A] [7091A7C6]
04 87,1 [F8A9BC83] 6CC934F
05 94,1 [05B52807] [E816EA64]
06 78,6 [923D1612] [0CDCCFA6]
07 81,5 [F1817F20] [2156AA6C]

Thx to Ginger Devil
DOWNLOAD LINKS:
Buy Premium To Support Me & Get Resumable Support & Max Speed


Links are Interchangeable - No Password - Single Extraction

UFO - Ain't Misbehavin' (1988) Fast Download


Ad2

 
 
 
Dear visitor, you went to the site as an unregistered user. We encourage you to register or enter the site under your name.
 
   
 
 (Votes #: 0)