2013Zone For Latest Downloads

 
     
 
Legal Downloads » Music » The Rolling Stones - Undercover (1983) [1986, CDCBS 450200 2]
Menu
Home Applications
Games Movies
Music TV Shows
Torrents Graphics

Sitemap

RSS
 
Advanced Search
Last News
Site Info
Top Contributors:
  1    supper88 32766
  2    admin 32693
  3    Whisky 10080
  4    Shark_ 8911
  5    creativelivenew 8706
  6    whathesupa 2799
  7    candymypost 840
  8    hvnteam 629
  9    vuong87 3


Articles:
  This Hour: 0
  Today: 0
  This Month: 0
  All Time: 515561


Torrents:
  Today: 0
  Yesterday: 0
  All Time: 156684


Membership:
  Registered Today :0
  This Hour:0
  This Month:0
  Total:14
  Banned:1

{online}
{inform_torrent}
Friend:
We Recomend
Trend
Trend
Ad1

Search In Site

Music : The Rolling Stones - Undercover (1983) [1986, CDCBS 450200 2]
 
http://i58.fastpic.ru/big/2015/0217/d8/7db0a9ee167466fc731ea94d7ea2e6d8.jpg

The Rolling Stones - Undercover (1983)
EAC | Flac(Image) + Cue + Log & MP3 CBR 320Kbps
CBS, CDCBS 450200 2 | Austria | ~ 302 or 112 Mb | Scans Included
Classic Rock

"As the Rolling Stones' most ambitious album since Some Girls, Undercover is a weird, wild mix of hard rock, new wave pop, reggae, dub, and soul. Even with all the careening musical eclecticism, what distinguishes Undercover is its bleak, nihilistic attitude -- it's teeming with sickness, with violence, kinky sex, and loathing dripping from almost every song..."

The Rolling Stones - Undercover (1983):

http://i66.fastpic.ru/big/2015/0217/17/ffe652927c659cc34ed113ff8f7c7917.jpg

Tracklist:

1. Undercover Of The Night (4:33)
2. She Was Hot (4:41)
3. Tie You Up (The Pain Of Love) (4:16)
4. Wanna Hold You (3:53)
5. Feel On Baby (5:07)
6. Too Much Blood (6:14)
7. Pretty Beat Up (4:06)
8. Too Tough (3:51)
9. All The Way Down (3:15)
10. It Must Be Hell (5:04)

Musicians:

Mick Jagger - lead and backing vocals, electric guitar, harmonica
Keith Richards - electric guitar, backing vocals, lead vocals on "Wanna Hold You", bass on "Pretty Beat Up"
Ronnie Wood - electric and slide guitar, backing vocals, bass on "Tie You Up" and "Wanna Hold You"
Charlie Watts - drums
Bill Wyman - bass guitar, percussion, piano on "Pretty Beat Up"

Additional musicians:
Chuck Leavell - keyboards, organ, piano
Ian Stewart - piano on "She Was Hot" and "Pretty Beat Up", percussion
David Sanborn - saxophone
CHOPS - horns
Sly Dunbar - percussion
Robbie Shakespeare - bass
Moustapha Cisse - percussion
Brahms Coundoul - percussion
Martin Ditcham - percussion
Jim Barber - electric guitar on "Too Much Blood"


Exact Audio Copy V1.0 beta 4 from 7. December 2014

EAC extraction logfile from 11. January 2015, 23:35

The Rolling Stones / Undercover

Used drive : Optiarc DVD RW AD-7203A Adapter: 1 ID: 0

Read mode : Secure
Utilize accurate stream : Yes
Defeat audio cache : Yes
Make use of C2 pointers : No

Read offset correction : 48
Overread into Lead-In and Lead-Out : No
Fill up missing offset samples with silence : Yes
Delete leading and trailing silent blocks : No
Null samples used in CRC calculations : Yes
Used interface : Native Win32 interface for Win NT & 2000

Used output format : User Defined Encoder
Selected bitrate : 128 kBit/s
Quality : High
Add ID3 tag : No
Command line compressor : C:\Program Files\Exact Audio Copy\Flac\flac.exe
Additional command line options : -V -8 -T "Date=%year%" -T "Genre=%genre%" %source%

TOC of the extracted CD Track | Start | Length | Start sector | End sector
-----------
1 | 0:00.00 | 4:33.20 | 0 | 20494
2 | 4:33.20 | 4:41.62 | 20495 | 41631
3 | 9:15.07 | 4:16.13 | 41632 | 60844
4 | 13:31.20 | 3:52.30 | 60845 | 78274
5 | 17:23.50 | 5:06.52 | 78275 | 101276
6 | 22:30.27 | 6:14.65 | 101277 | 129391
7 | 28:45.17 | 4:04.73 | 129392 | 147764
8 | 32:50.15 | 3:52.17 | 147765 | 165181
9 | 36:42.32 | 3:13.53 | 165182 | 179709
10 | 39:56.10 | 5:06.50 | 179710 | 202709

Range status and errors

Selected range Filename G:\Music\My Rips\s296\The Rolling Stones - 1983 - Undercover (1986, CDCBS 450200 2, matrix DIDP 10582 11A2 +++++) - by s296\The Rolling Stones - 1983 - Undercover (1986, CDCBS 450200 2, DIDP 10582A2).wav Peak level 100.0 %
Extraction speed 3.4 X
Range quality 99.9 %
Test CRC 61A57A1C
Copy CRC 61A57A1C
Copy OK

No errors occurred


AccurateRip summary

Track 1 accurately ripped (confidence 14) [9209A502] (AR v2)
Track 2 accurately ripped (confidence 14) [29ED9D38] (AR v2)
Track 3 accurately ripped (confidence 14) [822209A9] (AR v2)
Track 4 accurately ripped (confidence 14) [6EBA1E95] (AR v2)
Track 5 accurately ripped (confidence 14) [2729FBFE] (AR v2)
Track 6 accurately ripped (confidence 14) [E2865FA0] (AR v2)
Track 7 accurately ripped (confidence 14) [E846CE55] (AR v2)
Track 8 accurately ripped (confidence 14) [E449D361] (AR v2)
Track 9 accurately ripped (confidence 14) [A0BB198F] (AR v2)
Track 10 accurately ripped (confidence 13) [0B4B8D8E] (AR v2)

All tracks accurately ripped

End of status report

---- CUETools DB Plugin V2.1.4

[CTDB TOCID: TyxfMZSErKOjqExlJTVUa.VV58A-] found
Submit result: TyxfMZSErKOjqExlJTVUa.VV58A- has been confirmed
Track | CTDB Status
1 | (14/14) Accurately ripped
2 | (14/14) Accurately ripped
3 | (14/14) Accurately ripped
4 | (14/14) Accurately ripped
5 | (14/14) Accurately ripped
6 | (14/14) Accurately ripped
7 | (12/14) Accurately ripped, or (2/14) differs in 2 samples @03:17:19
8 | (14/14) Accurately ripped
9 | (14/14) Accurately ripped
10 | (14/14) Accurately ripped

==== Log checksum 2DBD0F1EC6400163506417B4EBA966F18CDBDE9385634A152F04FB7877070EC8 ====

foobar2000 1.2.9 / Dynamic Range Meter 1.1.1
log date: 2015-02-15 09:31:43

--
Analyzed: The Rolling Stones / Undercover
--

DR Peak RMS Duration Track
--
DR14 -0.27 dB -16.74 dB 4:33 01-Undercover Of The Night
DR13 0.00 dB -16.16 dB 4:42 02-She Was Hot
DR14 -0.25 dB -16.21 dB 4:16 03-Tie You Up (The Pain Of Love)
DR13 -2.22 dB -17.34 dB 3:52 04-Wanna Hold You
DR15 -3.02 dB -20.21 dB 5:07 05-Feel On Baby
DR14 -0.21 dB -16.67 dB 6:15 06-Too Much Blood
DR14 -0.56 dB -17.71 dB 4:05 07-Pretty Beat Up
DR13 -1.48 dB -16.82 dB 3:52 08-Too Tough
DR13 -1.63 dB -17.15 dB 3:14 09-All The Way Down
DR14 -0.50 dB -16.44 dB 5:07 10-It Must Be Hell
--

Number of tracks: 10
Official DR value: DR14

Samplerate: 44100 Hz
Channels: 2
Bits per sample: 16
Bitrate: 894 kbps
Codec: FLAC

[CUETools log; Date: 15.02.2015 9:32:16; Version: 2.1.4]
[CTDB TOCID: TyxfMZSErKOjqExlJTVUa.VV58A-] found.
Track | CTDB Status
1 | (16/16) Accurately ripped
2 | (16/16) Accurately ripped
3 | (16/16) Accurately ripped
4 | (16/16) Accurately ripped
5 | (16/16) Accurately ripped
6 | (16/16) Accurately ripped
7 | (13/16) Accurately ripped, or (3/16) differs in 2 samples @03:17:19
8 | (16/16) Accurately ripped
9 | (16/16) Accurately ripped
10 | (16/16) Accurately ripped
[AccurateRip ID: 00113373-00897a34-840a8e0a] found.
Track [ CRC | V2 ] Status
01 [d232f48d|9209a502] (14+15/29) Accurately ripped
02 [859e95a8|29ed9d38] (14+15/29) Accurately ripped
03 [e884145e|822209a9] (12+15/27) Accurately ripped
04 [a91d2d96|6eba1e95] (12+15/27) Accurately ripped
05 [1da8ad76|2729fbfe] (12+15/27) Accurately ripped
06 [86ac142c|e2865fa0] (12+15/27) Accurately ripped
07 [8ed8f6c6|e846ce55] (12+15/27) Accurately ripped
08 [2462a005|e449d361] (12+15/27) Accurately ripped
09 [eed3d7c0|a0bb198f] (13+15/28) Accurately ripped
10 [d34f8c2e|0b4b8d8e] (12+14/26) Accurately ripped

Track Peak [ CRC32 ] [W/O NULL] [ LOG ]
-- 100,0 [61A57A1C] 063FAD3 CRC32
01 96,9 [6F76CF61] [64B3EC65]
02 100,0 [1F44147A] [0D08EFBB]
03 97,2 [8E4F477A] [D7A39511]
04 77,4 [1C2218EA] [13F2676C]
05 70,6 [A5C6BF01] [4C0C0420]
06 97,6 [A72A48E7] [D0CE5EAD]
07 93,7 [F52B7877] [433A4FC7]
08 84,3 [EE37DC54] [5B530BE7]
09 82,8 [885C7825] [6D7DB1DA]
10 94,4 [7C7B93F4] [43D31621]

http://i64.fastpic.ru/big/2015/0217/d6/d00023ad2ce6c716ce20ad8f480de0d6.jpg

DOWNLOAD LINKS:
Buy Premium To Support Me & Get Resumable Support & Max Speed


Links are Interchangeable - No Password - Single Extraction

The Rolling Stones - Undercover (1983) [1986, CDCBS 450200 2] Fast Download


Ad2

 
 
 
Dear visitor, you went to the site as an unregistered user. We encourage you to register or enter the site under your name.
 
   
 
 (Votes #: 0)