2013Zone For Latest Downloads

 
     
 
Legal Downloads » Music » VA - Saigon Rock & Soul: Vietnamese Classic Tracks 1968-1974 (2012)
Menu
Home Applications
Games Movies
Music TV Shows
Torrents Graphics

Sitemap

RSS
 
Advanced Search
Last News
Site Info
Top Contributors:
  1    supper88 32766
  2    admin 32711
  3    Whisky 10080
  4    Shark_ 8911
  5    creativelivenew 8706
  6    whathesupa 2799
  7    candymypost 840
  8    hvnteam 629
  9    vuong87 3


Articles:
  This Hour: 0
  Today: 0
  This Month: 0
  All Time: 515501


Torrents:
  Today: 0
  Yesterday: 0
  All Time: 156676


Membership:
  Registered Today :0
  This Hour:0
  This Month:0
  Total:14
  Banned:1

{online}
{inform_torrent}
Friend:
Full Download Scripts
Torrent Download
Trend
Trend

Search In Site

Music : VA - Saigon Rock & Soul: Vietnamese Classic Tracks 1968-1974 (2012)
 
http://i57.fastpic.ru/big/2015/0217/40/b691d166e2eb3498dc839db25d6b3940.jpg

VA - Saigon Rock & Soul: Vietnamese Classic Tracks 1968-1974 (2012)
EAC | FLAC | Image (Cue&Log) ~ 431 Mb (incl 5%) | Mp3 (CBR320) ~ 181 Mb (incl 5%) | Scans included
Genre: Classic Rock, Psychedelia, Ethnic | Label: Sublime Frequencies | # SF060CD | Time: 01:09:53

"A whole sociological study could probably be based around Saigon Rock & Soul, a double-album compilation of killer Vietnamese pop/rock tracks from the late ?60s to mid-?70s, but that will be left to more academically minded types in order to focus on the music at hand. The tunes included here were surely the product of Western music's influence, as American soldiers brought the sounds of U.S. rock, pop, and soul along with them over the course of the Vietnam War. By the late ?60s, a whole subgenre of than nac ("modern music") had emerged, as hordes of young Vietnamese musicians absorbed and emulated the music that arrived from overseas. Besides local clubs, many of the artists featured here performed -- and often recorded -- at U.S. army bases, where the soldiers made up a major portion of their fan base."

http://i64.fastpic.ru/big/2015/0217/2a/a58f89f09e79e7c0dd7fa79a511f2b2a.jpg

http://i57.fastpic.ru/big/2015/0217/46/a4c3b4d70482726d2610219900450646.jpg

Tracklist:

01. CBC Band - Tinh Yeu Tuyet Voi (The Greatest Love) (03:53)
02. Elvis Phuong - Bai ca ngong (The Crazy Song) (03:50)
03. Carol Kim - Cai Tram Em Cai (Your Hair Clip) (04:35)
04. Hanh Mai - Toc Mai Soi Van Soi Dai (Long, Uneven Hair) (04:42)
05. Сarol Kim - Noi Buon Con Gai (The Sadness of Being a Girl) (03:54)
06. Bich Loan & CBC Band - Con tim va nuroc mat (Heart and Tears) (03:48)
07. Phuong Tam - Dem huyen dieu (Magical Night) (04:41)
08. Le Thu - Sao Bien (Etoile Des Neiges) (Starfish) (04:54)
09. Minh Xuan & Phurng Hoang - Mat troi den (Black Sun) (03:02)
10. Thai Thanh - Birng Sang (Dawn) (04:34)
11. Bang Chan - Nhung dom mat hoa chau (Fireballs) (03:49)
12. Giao Linh - Chuyen Tinh Sao Ly (A Love Story From Sau Ri) (04:40)
13. Elvis Phuong - Kho Tang Cua Chung Ta (Our Treasures) (02:49)
14. Thanh Lan - Hoai Thu (Autumn Memory) (04:13)
15. Hung Cuong & Mai Le Huyen - Hon Anh Gian Em (Jealousy) (03:24)
16. Mai Le Huyen - Duyen phan con gai (A Girl's Destiny) (04:54)
17. Phuong Dung - Do Ai (Riddles) (04:03)


Exact Audio Copy V1.0 beta 3 from 29. August 2011

Отчёт EAC об извлечении, выполненном 18. мая 2013, 23:46

Saigon Rock & Roll / Vietnamese classic tracks

Дисковод: PIONEER DVD-RW DVR-219L Adapter: 0 ID: 0

Режим чтения : Достоверность
?спользование точного потока : Да
Отключение кэ?а аудио : Да
?спользование указателей C2 : Нет

Коррекция смещения при чтении : 6
Способность читать области Lead-in и Lead-out : Нет
Заполнение пропущенных сэмплов ти?иной : Да
Удаление блоков с ти?иной в начале и конце : Нет
При вычислениях CRC использовались нулевые сэмплы : Да
?нтерфейс : Встроенный Win32-интерфейс для Win NT/2000

Выходной формат : Пользовательский кодировщик
Выбранный битрейт : 640 kBit/s
Качество : Высокий
Добавление ID3-тега : Нет
Утилита сжатия : C:\Program Files (x86)\Exact Audio Copy\Flac\flac.exe
Дополнительные параметры : -V -8 -T "Date=%year%" -T "Genre=%genre%" %source%

TOC извлечённого CD Трек | Старт | Длительность | Начальный сектор | Конечный сектор
-------
1 | 0:00.00 | 3:53.71 | 0 | 17545
2 | 3:53.71 | 3:50.35 | 17546 | 34830
3 | 7:44.31 | 4:35.18 | 34831 | 55473
4 | 12:19.49 | 4:42.04 | 55474 | 76627
5 | 17:01.53 | 3:54.68 | 76628 | 94245
6 | 20:56.46 | 3:48.60 | 94246 | 111405
7 | 24:45.31 | 4:41.02 | 111406 | 132482
8 | 29:26.33 | 4:54.15 | 132483 | 154547
9 | 34:20.48 | 3:02.44 | 154548 | 168241
10 | 37:23.17 | 4:34.23 | 168242 | 188814
11 | 41:57.40 | 3:49.70 | 188815 | 206059
12 | 45:47.35 | 4:40.61 | 206060 | 227120
13 | 50:28.21 | 2:49.70 | 227121 | 239865
14 | 53:18.16 | 4:13.13 | 239866 | 258853
15 | 57:31.29 | 3:24.10 | 258854 | 274163
16 | 60:55.39 | 4:54.01 | 274164 | 296214
17 | 65:49.40 | 4:03.68 | 296215 | 314507

Характеристики диапазона извлечения и сообщения об о?ибках

Выбранный диапазон ?мя файла E:\dvda\Saigon Rock & Roll - Vietnamese classic tracks.wav Пиковый уровень 92.5 %
Скорость извлечения 1.8 X
Качество диапазона 100.0 %
CRC теста CEBE14BE
CRC копии CEBE14BE
Копирование... OK

О?ибок не произо?ло


AccurateRip: сводка

Трек 1 отсутствует в базе данных
Трек 2 отсутствует в базе данных
Трек 3 отсутствует в базе данных
Трек 4 отсутствует в базе данных
Трек 5 отсутствует в базе данных
Трек 6 отсутствует в базе данных
Трек 7 отсутствует в базе данных
Трек 8 отсутствует в базе данных
Трек 9 отсутствует в базе данных
Трек 10 отсутствует в базе данных
Трек 11 отсутствует в базе данных
Трек 12 отсутствует в базе данных
Трек 13 отсутствует в базе данных
Трек 14 отсутствует в базе данных
Трек 15 отсутствует в базе данных
Трек 16 отсутствует в базе данных
Трек 17 отсутствует в базе данных

Ни одного трека нет в базе AccurateRip

Конец отчёта

==== Контрольная сумма отчёта E81C2573E6962DACFF975077DEEDFA421E078D4971FE9A7168CB03354C1532FA ====

[CUETools log; Date: 15.02.2015 0:15:34; Version: 2.1.4]
[CTDB TOCID: uR8Kd8SRhAFxkRpBTbbx_B4.26E-] found.
Track | CTDB Status
1 | (12/12) Accurately ripped
2 | (12/12) Accurately ripped
3 | (12/12) Accurately ripped
4 | (12/12) Accurately ripped
5 | (12/12) Accurately ripped
6 | (12/12) Accurately ripped
7 | (12/12) Accurately ripped
8 | (12/12) Accurately ripped
9 | (12/12) Accurately ripped
10 | (12/12) Accurately ripped
11 | (12/12) Accurately ripped
12 | (12/12) Accurately ripped
13 | (12/12) Accurately ripped
14 | (12/12) Accurately ripped
15 | (12/12) Accurately ripped
16 | (12/12) Accurately ripped
17 | (12/12) Accurately ripped
[AccurateRip ID: 002b80bf-0226136b-e7106111] found.
Track [ CRC | V2 ] Status
01 [3b8e3cb7|4aacc77e] (0+6/6) Accurately ripped
02 [f019cdd2|d70c20f8] (0+6/6) Accurately ripped
03 [6135fedb|ce4e105c] (0+6/6) Accurately ripped
04 [24c2308c|0ad7ff54] (0+6/6) Accurately ripped
05 [930d7fd1|42510ff7] (0+6/6) Accurately ripped
06 [c124767e|d0b050f0] (0+6/6) Accurately ripped
07 [c9ed20ed|1b88eebb] (0+6/6) Accurately ripped
08 [889c2c4c|6bd92030] (0+6/6) Accurately ripped
09 [2be5ccab|c62b9c7f] (0+6/6) Accurately ripped
10 [89394a58|54fffac1] (0+6/6) Accurately ripped
11 [3baa2095|e959712b] (0+6/6) Accurately ripped
12 [2cce8fa8|a963eba5] (0+6/6) Accurately ripped
13 [2fdddb4a|cd9ef9ef] (0+6/6) Accurately ripped
14 [20d5258d|cf595dd6] (0+6/6) Accurately ripped
15 [55143bdb|0b381777] (0+6/6) Accurately ripped
16 [4249bac0|7f95c025] (0+6/6) Accurately ripped
17 [82c21ab0|b0efe648] (0+6/6) Accurately ripped

Track Peak [ CRC32 ] [W/O NULL] [ LOG ]
-- 92,5 [CEBE14BE] [2D3D5550] CRC32
01 88,3 [7C5BC5D6] [EF56D03D]
02 86,2 [1A4C5A2E] [D0690174]
03 85,1 [15DBF9F7] [ACD95AF5]
04 77,6 [6E90DE38] [CD4131FA]
05 84,2 [CE93B66E] [0BF55C85]
06 82,2 [177EE797] [EEDEED5B]
07 77,9 [178C3D6A] [DFA03065]
08 77,5 [EF8D9427] [798F7C1E]
09 85,8 [1500E1D6] [7225C372]
10 83,4 [220F6895] [5C7F7985]
11 84,2 [D42AB68A] [E98D34D0]
12 71,9 [764C6FA2] [3669F24C]
13 90,1 [5EE27EA3] [799611F2]
14 92,5 [8FA7DCA6] [0D26F88B]
15 87,4 [1E6B3E25] [382A940C]
16 89,1 [3F2BC113] [E356E349]
17 81,1 [16E00665] [27B263EA]

foobar2000 1.2 / Dynamic Range Meter 1.1.1
log date: 2015-02-14 23:46:22

--
Statistics for: 06-Con tim va nuroc mat (Heart and Tears)
Number of samples: 10090080
Duration: 3:49
-- Left Right

Peak Value: -1.70 dB --- -1.73 dB
Avg RMS: -10.15 dB --- -10.57 dB
DR channel: 7.76 dB --- 7.80 dB
--

Official DR Value: DR8

Samplerate: 44100 Hz
Channels: 2
Bits per sample: 16
Bitrate: 797 kbps
Codec: FLAC

--
Statistics for: 03-Cai Tram Em Cai (Your Hair Clip)
Number of samples: 12138084
Duration: 4:35
-- Left Right

Peak Value: -2.68 dB --- -1.39 dB
Avg RMS: -12.36 dB --- -10.42 dB
DR channel: 7.61 dB --- 7.04 dB
--

Official DR Value: DR7

Samplerate: 44100 Hz
Channels: 2
Bits per sample: 16
Bitrate: 797 kbps
Codec: FLAC

--
Analyzed: CBC Band / Saigon Rock & Soul - Vietnamese Classic Tracks 1968-1974 (1)
Elvis Phuong / Saigon Rock & Soul - Vietnamese Classic Tracks 1968-1974 (2-3)
--

DR Peak RMS Duration Track
--
DR6 -1.08 dB -8.38 dB 3:54 01-Tinh Yeu Tuyet Voi (The Greatest Love)
DR7 -1.29 dB -9.77 dB 3:50 02-Bai ca ngong (The Crazy Song)
DR8 -0.90 dB -10.75 dB 2:50 13-Kho Tang Cua Chung Ta (Our Treasures)
--

Number of tracks: 3
Official DR value: DR7

Samplerate: 44100 Hz
Channels: 2
Bits per sample: 16
Bitrate: 797 kbps
Codec: FLAC

--
Statistics for: 12-Chuyen Tinh Sao Ly (A Love Story From Sau Ri)
Number of samples: 12383868
Duration: 4:41
-- Left Right

Peak Value: -2.86 dB --- -2.93 dB
Avg RMS: -12.67 dB --- -12.54 dB
DR channel: 7.95 dB --- 7.77 dB
--

Official DR Value: DR8

Samplerate: 44100 Hz
Channels: 2
Bits per sample: 16
Bitrate: 797 kbps
Codec: FLAC

--
Analyzed: Hanh Mai / Saigon Rock & Soul - Vietnamese Classic Tracks 1968-1974 (1)
Hung Cuong & Mai Le Huyen / Saigon Rock & Soul - Vietnamese Classic Tracks 1968-1974 (2)
--

DR Peak RMS Duration Track
--
DR7 -2.20 dB -11.24 dB 4:42 04-Toc Mai Soi Van Soi Dai (Long, Uneven Hair)
DR8 -1.17 dB -11.01 dB 3:24 15-Hon Anh Gian Em (Jealousy)
--

Number of tracks: 2
Official DR value: DR7

Samplerate: 44100 Hz
Channels: 2
Bits per sample: 16
Bitrate: 797 kbps
Codec: FLAC

--
Analyzed: Le Thu / Saigon Rock & Soul - Vietnamese Classic Tracks 1968-1974 (1)
Mai Le Huyen / Saigon Rock & Soul - Vietnamese Classic Tracks 1968-1974 (2)
--

DR Peak RMS Duration Track
--
DR7 -2.21 dB -11.11 dB 4:54 08-Sao Bien (Etoile Des Neiges) (Starfish)
DR8 -1.00 dB -12.70 dB 4:54 16-Duyen phan con gai (A Girl's Destiny)
--

Number of tracks: 2
Official DR value: DR8

Samplerate: 44100 Hz
Channels: 2
Bits per sample: 16
Bitrate: 797 kbps
Codec: FLAC

--
Analyzed: Minh Xuan & Phurng Hoang / Saigon Rock & Soul - Vietnamese Classic Tracks 1968-1974 (1)
Phuong Dung / Saigon Rock & Soul - Vietnamese Classic Tracks 1968-1974 (2)
--

DR Peak RMS Duration Track
--
DR7 -1.32 dB -9.72 dB 3:03 09-Mat troi den (Black Sun)
DR5 -1.81 dB -9.40 dB 4:04 17-Do Ai (Riddles)
--

Number of tracks: 2
Official DR value: DR6

Samplerate: 44100 Hz
Channels: 2
Bits per sample: 16
Bitrate: 797 kbps
Codec: FLAC

--
Analyzed: Phuong Tam / Saigon Rock & Soul - Vietnamese Classic Tracks 1968-1974 (1)
Thai Thanh / Saigon Rock & Soul - Vietnamese Classic Tracks 1968-1974 (2)
Thanh Lan / Saigon Rock & Soul - Vietnamese Classic Tracks 1968-1974 (3)
--

DR Peak RMS Duration Track
--
DR8 -2.16 dB -12.13 dB 4:41 07-Dem huyen dieu (Magical Night)
DR7 -1.57 dB -9.91 dB 4:34 10-Birng Sang (Dawn)
DR7 -0.67 dB -10.11 dB 4:13 14-
--

Number of tracks: 3
Official DR value: DR7

Samplerate: 44100 Hz
Channels: 2
Bits per sample: 16
Bitrate: 797 kbps
Codec: FLAC

--
Statistics for: 05-Noi Buon Con Gai (The Sadness of Being a Girl)
Number of samples: 10359384
Duration: 3:55
-- Left Right

Peak Value: -1.49 dB --- -2.54 dB
Avg RMS: -9.11 dB --- -9.96 dB
DR channel: 6.02 dB --- 5.04 dB
--

Official DR Value: DR6

Samplerate: 44100 Hz
Channels: 2
Bits per sample: 16
Bitrate: 797 kbps
Codec: FLAC

foobar2000 1.2 / Dynamic Range Meter 1.1.1
log date: 2015-02-14 23:46:21

--
Statistics for: 11-Nhung dom mat hoa chau (Fireballs)
Number of samples: 10140060
Duration: 3:50
-- Left Right

Peak Value: -1.49 dB --- -1.65 dB
Avg RMS: -13.11 dB --- -12.11 dB
DR channel: 10.34 dB --- 9.06 dB
--

Official DR Value: DR10

Samplerate: 44100 Hz
Channels: 2
Bits per sample: 16
Bitrate: 797 kbps
Codec: FLAC

http://i58.fastpic.ru/big/2015/0217/d0/63680150126884706bd596c7512d2bd0.jpg

http://i63.fastpic.ru/big/2015/0217/51/5a78b27230af9b4c4ddd83db2eb8d951.jpg



DOWNLOAD LINKS:
Buy Premium To Support Me & Get Resumable Support & Max Speed


Links are Interchangeable - No Password - Single Extraction

VA - Saigon Rock & Soul: Vietnamese Classic Tracks 1968-1974 (2012) Fast Download



 
 
 
Dear visitor, you went to the site as an unregistered user. We encourage you to register or enter the site under your name.
 
   
 
 (Votes #: 0)