2013Zone For Latest Downloads

 
     
 
Legal Downloads » Music » The Many Faces Of Sex Pistols: Studio Sessions, Live Gigs & Rarities (2013)
Menu
Home Applications
Games Movies
Music TV Shows
Torrents Graphics

Sitemap

RSS
 
Advanced Search
Last News
Site Info
Top Contributors:
  1    supper88 32766
  2    admin 32708
  3    Whisky 10080
  4    Shark_ 8911
  5    creativelivenew 8706
  6    whathesupa 2799
  7    candymypost 840
  8    hvnteam 629
  9    vuong87 3


Articles:
  This Hour: 0
  Today: 17
  This Month: 17
  All Time: 515518


Torrents:
  Today: 0
  Yesterday: 0
  All Time: 156676


Membership:
  Registered Today :0
  This Hour:0
  This Month:0
  Total:14
  Banned:1

{online}
{inform_torrent}
Friend:
Full Download Scripts
Torrent Download
Trend
Trend

Search In Site

Music : The Many Faces Of Sex Pistols: Studio Sessions, Live Gigs & Rarities (2013)
 
http://i65.fastpic.ru/big/2015/0217/a4/0ea24874151d0354e06a5cde2abd2da4.jpg

The Many Faces Of Sex Pistols: Studio Sessions, Live Gigs & Rarities (2013)
EAC | Flac(Image) + Cue + Log & MP3 CBR 320Kbps
3CD | Music Brokers, MBB7100 | ~ 1069 or 359 Mb | Scans Included
Punk Rock

"There is no other band like this: The Sex Pistols have changed the history of pop music and turned it upside down. 36 years after their debut album the echoes on that release are still very easy to recognize in the current music. The Many Faces Of Sex Pistols is a unique collection, which is showcasing lots of new shapes of this great band..."

The Many Faces Of Sex Pistols: Studio Sessions, Live Gigs & Rarities (2013):

http://i65.fastpic.ru/big/2015/0217/c8/21c95195fbaef2d53e8a26a5cd1b51c8.jpg

Tracklist CD01 - The Studio Sessions:

01. Anarchy In The UK 04:04
02. God Save The Queen 03:34
03. Pretty Vacant 03:06
04. Liar 02:42
05. Problems 04:15
06. New York 03:06
07. EMI 03:13
08. No Fun (The Stooges Song) 06:58
09. Silly Thing (Paul Cook On Vocals) 02:55
10. Here We Go Again (Steve Jones On Vocals) 04:09
11. The Swindle Continues 03:04
12. Judging Minds (Early Version) 03:03
13. Anarchy in The UK 03:36
14. Sex On 45 03:46

Exact Audio Copy V1.0 beta 3 from 29. August 2011

EAC extraction logfile from 16. January 2015, 20:40

Various Artists / The Many Faces Of Sex Pistols

Used drive : PIONEER BD-RW BDR-TD03 Adapter: 0 ID: 1

Read mode : Secure
Utilize accurate stream : Yes
Defeat audio cache : Yes
Make use of C2 pointers : No

Read offset correction : 667
Overread into Lead-In and Lead-Out : No
Fill up missing offset samples with silence : Yes
Delete leading and trailing silent blocks : No
Null samples used in CRC calculations : Yes
Used interface : Native Win32 interface for Win NT & 2000

Used output format : User Defined Encoder
Selected bitrate : 768 kBit/s
Quality : High
Add ID3 tag : No
Command line compressor : C:\Program Files (x86)\Exact Audio Copy\FLAC\FLAC.EXE
Additional command line options : -6 -V -T "ARTIST=%artist%" -T "TITLE=%title%" -T "ALBUM=%albumtitle%" -T "DATE=%year%" -T "TRACKNUMBER=%tracknr%" -T "GENRE=%genre%" -T "COMMENT=%comment%" -T "BAND=%albuminterpret%" -T "ALBUMARTIST=%albuminterpret%" -T "COMPOSER=%composer%" %haslyrics%--tag-from-file=LYRICS="%lyricsfile%"%haslyrics% -T "DISCNUMBER=%cdnumber%" -T "TOTALDISCS=%totalcds%" -T "TOTALTRACKS=%numtracks%" %hascover%--picture="%coverfile%"%hascover% %source% -o %dest%

TOC of the extracted CD Track | Start | Length | Start sector | End sector
-----------
1 | 0:00.00 | 4:04.00 | 0 | 18299
2 | 4:04.00 | 3:34.67 | 18300 | 34416
3 | 7:38.67 | 3:06.30 | 34417 | 48396
4 | 10:45.22 | 2:42.30 | 48397 | 60576
5 | 13:27.52 | 4:15.30 | 60577 | 79731
6 | 17:43.07 | 3:06.15 | 79732 | 93696
7 | 20:49.22 | 3:13.60 | 93697 | 108231
8 | 24:03.07 | 6:58.67 | 108232 | 139648
9 | 31:01.74 | 2:55.45 | 139649 | 152818
10 | 33:57.44 | 4:09.37 | 152819 | 171530
11 | 38:07.06 | 3:04.52 | 171531 | 185382
12 | 41:11.58 | 3:03.67 | 185383 | 199174
13 | 44:15.50 | 3:36.45 | 199175 | 215419
14 | 47:52.20 | 3:46.60 | 215420 | 232429

Range status and errors

Selected range Filename C:\Users\Deris\Desktop\TriSePi\cd1\Various Artists - The Many Faces Of Sex Pistols.wav Peak level 99.9 %
Extraction speed 4.6 X
Range quality 100.0 %
Test CRC 772E4E5D
Copy CRC 772E4E5D
Copy OK

No errors occurred


AccurateRip summary

Track 1 accurately ripped (confidence 1) [4BA5F467] (AR v2)
Track 2 accurately ripped (confidence 1) [28D6F0FD] (AR v2)
Track 3 accurately ripped (confidence 1) B1E01C0 (AR v2)
Track 4 accurately ripped (confidence 1) [2681F671] (AR v2)
Track 5 accurately ripped (confidence 1) [F99B35D6] (AR v2)
Track 6 accurately ripped (confidence 1) [38873EA8] (AR v2)
Track 7 accurately ripped (confidence 1) [4F18C551] (AR v2)
Track 8 accurately ripped (confidence 1) [56861E14] (AR v2)
Track 9 accurately ripped (confidence 1) [C73AB05D] (AR v2)
Track 10 accurately ripped (confidence 1) [E2700045] (AR v2)
Track 11 accurately ripped (confidence 1) [4C138D21] (AR v2)
Track 12 accurately ripped (confidence 1) [ACA4CFC9] (AR v2)
Track 13 accurately ripped (confidence 1) [7D822DF6] (AR v2)
Track 14 accurately ripped (confidence 1) [5C2592E4] (AR v2)

All tracks accurately ripped

End of status report

---- CUETools DB Plugin V2.1.3

[CTDB TOCID: tPkM2p4OLwVcqoHnhcSzE0VDSdE-] found, Submit result: tPkM2p4OLwVcqoHnhcSzE0VDSdE- has been confirmed
[9f9635a3] (3/3) Accurately ripped

==== Log checksum EEBCC9E95D4017F84C1355B93D1B5FC62E0371C9B067DF6F36CB0BBE7C6EEC1F ====

foobar2000 1.2.9 / Dynamic Range Meter 1.1.1
log date: 2015-02-15 12:45:49

--
Analyzed: Ex Pistols / The Many Faces Of Sex Pistols
--

DR Peak RMS Duration Track
--
DR7 -0.01 dB -7.84 dB 3:05 11-The Swindle Continues
DR7 -0.01 dB -7.80 dB 3:04 12-Judging Minds (Early Version)
DR7 -0.01 dB -9.01 dB 3:37 13-Anarchy in The UK
DR5 -0.01 dB -6.46 dB 3:47 14-Sex On 45
--

Number of tracks: 4
Official DR value: DR6

Samplerate: 44100 Hz
Channels: 2
Bits per sample: 16
Bitrate: 1083 kbps
Codec: FLAC

--
Analyzed: Sex Pistols / The Many Faces Of Sex Pistols
--

DR Peak RMS Duration Track
--
DR6 -0.01 dB -6.61 dB 4:04 01-Anarchy In The UK
DR6 -0.01 dB -6.83 dB 3:35 02-God Save The Queen
DR7 -0.01 dB -7.51 dB 3:06 03-Pretty Vacant
DR6 -0.01 dB -6.90 dB 2:42 04-Liar
DR6 -0.01 dB -6.80 dB 4:15 05-Problems
DR7 -0.01 dB -8.29 dB 3:06 06-New York
DR7 -0.01 dB -8.23 dB 3:14 07-EMI
DR6 -0.01 dB -7.01 dB 6:59 08-No Fun (The Stooges Song)
DR6 -0.01 dB -7.04 dB 2:56 09-Silly Thing (Paul Cook On Vocals)
DR6 -0.01 dB -7.54 dB 4:09 10-Here We Go Again (Steve Jones On Vocals)
--

Number of tracks: 10
Official DR value: DR6

Samplerate: 44100 Hz
Channels: 2
Bits per sample: 16
Bitrate: 1083 kbps
Codec: FLAC

CUETools log; Date: 14.02.2015 0:05:04; Version: 2.1.4]
[CTDB TOCID: tPkM2p4OLwVcqoHnhcSzE0VDSdE-] found.
Track | CTDB Status
1 | (4/4) Accurately ripped
2 | (4/4) Accurately ripped
3 | (4/4) Accurately ripped
4 | (4/4) Accurately ripped
5 | (4/4) Accurately ripped
6 | (4/4) Accurately ripped
7 | (4/4) Accurately ripped
8 | (4/4) Accurately ripped
9 | (4/4) Accurately ripped
10 | (4/4) Accurately ripped
11 | (4/4) Accurately ripped
12 | (4/4) Accurately ripped
13 | (4/4) Accurately ripped
14 | (4/4) Accurately ripped
[AccurateRip ID: 001a8bef-011c300d-cb0c1b0e] found.
Track [ CRC | V2 ] Status
01 [d032b838|4ba5f467] (0+1/1) Accurately ripped
02 [73be42ba|28d6f0fd] (0+1/1) Accurately ripped
03 [0653eeab|bb1e01c0] (0+1/1) Accurately ripped
04 [033e7095|2681f671] (0+1/1) Accurately ripped
05 [263fe61f|f99b35d6] (0+1/1) Accurately ripped
06 [668fb0c6|38873ea8] (0+1/1) Accurately ripped
07 [77144b4f|4f18c551] (0+1/1) Accurately ripped
08 [3f2a059b|56861e14] (0+1/1) Accurately ripped
09 [829efff9|c73ab05d] (0+1/1) Accurately ripped
10 [a8da4bbc|e2700045] (0+1/1) Accurately ripped
11 [47ae11d8|4c138d21] (0+1/1) Accurately ripped
12 [366dfcb8|aca4cfc9] (0+1/1) Accurately ripped
13 [499248c3|7d822df6] (0+1/1) Accurately ripped
14 [a43cc616|5c2592e4] (0+1/1) Accurately ripped

Track Peak [ CRC32 ] [W/O NULL] [ LOG ]
-- 99,9 [772E4E5D] [3F7FE15A] CRC32
01 99,8 [4F443D45] [76C8CB88]
02 99,9 [386AFA06] [C54A829D]
03 99,8 [1B636BE5] [C16B1D36]
04 99,8 [EC8F0398] [E801186C]
05 99,8 [80F039F9] [F59CE297]
06 99,8 [89E5A154] [65F9ACFE]
07 99,8 [CD1FC290] [74EEEE28]
08 99,8 F735B11 [0C217675]
09 99,8 [DE9A6092] D3EF3C0
10 99,8 [198800FC] [C801B7EF]
11 99,8 2F594C1 25ACA70
12 99,8 [9338ADF5] [7BBA9A2E]
13 99,8 [9DD2F3E5] [42F9708A]
14 99,8 [C564657C] C6317B6

http://i65.fastpic.ru/big/2015/0217/fd/7418636f941b3397f02cf9975c5bfdfd.jpg

Tracklist CD02 - The Legendary Deny Album (The Ex Pistols):

01. Don't fear that your life will come to an end 03:20
02. Schools are prisons 03:44
03. Judging minds 03:07
04. Boasting 03:30
05. Revolution in the classroom 03:25
06. Happy families 03:10
07. The Land of hope and glory 03:32
08. Dancing on the dole 02:41
09. The great British weekend 04:19
10. Cliches 03:40
11. Nicotine addict 03:31
12. Daily life 03:28
13. Can't see the bars 'til we try to get out 03:04
14. Factory 03:05

Exact Audio Copy V1.0 beta 3 from 29. August 2011

EAC extraction logfile from 17. January 2015, 0:32

Various Artists / The Many Faces Of Sex Pistols

Used drive : PIONEER BD-RW BDR-TD03 Adapter: 0 ID: 1

Read mode : Secure
Utilize accurate stream : Yes
Defeat audio cache : Yes
Make use of C2 pointers : No

Read offset correction : 667
Overread into Lead-In and Lead-Out : No
Fill up missing offset samples with silence : Yes
Delete leading and trailing silent blocks : No
Null samples used in CRC calculations : Yes
Used interface : Native Win32 interface for Win NT & 2000

Used output format : User Defined Encoder
Selected bitrate : 768 kBit/s
Quality : High
Add ID3 tag : No
Command line compressor : C:\Program Files (x86)\Exact Audio Copy\FLAC\FLAC.EXE
Additional command line options : -6 -V -T "ARTIST=%artist%" -T "TITLE=%title%" -T "ALBUM=%albumtitle%" -T "DATE=%year%" -T "TRACKNUMBER=%tracknr%" -T "GENRE=%genre%" -T "COMMENT=%comment%" -T "BAND=%albuminterpret%" -T "ALBUMARTIST=%albuminterpret%" -T "COMPOSER=%composer%" %haslyrics%--tag-from-file=LYRICS="%lyricsfile%"%haslyrics% -T "DISCNUMBER=%cdnumber%" -T "TOTALDISCS=%totalcds%" -T "TOTALTRACKS=%numtracks%" %hascover%--picture="%coverfile%"%hascover% %source% -o %dest%

TOC of the extracted CD Track | Start | Length | Start sector | End sector
-----------
1 | 0:00.00 | 3:20.30 | 0 | 15029
2 | 3:20.30 | 3:44.15 | 15030 | 31844
3 | 7:04.45 | 3:07.15 | 31845 | 45884
4 | 10:11.60 | 3:30.22 | 45885 | 61656
5 | 13:42.07 | 3:25.15 | 61657 | 77046
6 | 17:07.22 | 3:10.37 | 77047 | 91333
7 | 20:17.59 | 3:32.15 | 91334 | 107248
8 | 23:49.74 | 2:41.07 | 107249 | 119330
9 | 26:31.06 | 4:19.22 | 119331 | 138777
10 | 30:50.28 | 3:40.52 | 138778 | 155329
11 | 34:31.05 | 3:31.22 | 155330 | 171176
12 | 38:02.27 | 3:28.52 | 171177 | 186828
13 | 41:31.04 | 3:04.67 | 186829 | 200695
14 | 44:35.71 | 3:05.37 | 200696 | 214607

Range status and errors

Selected range Filename C:\Users\Deris\Desktop\TriSePi\cd2\Various Artists - The Many Faces Of Sex Pistols.wav Peak level 99.9 %
Extraction speed 4.5 X
Range quality 100.0 %
Test CRC F3DA1968
Copy CRC F3DA1968
Copy OK

No errors occurred


AccurateRip summary

Track 1 accurately ripped (confidence 1) [80575385] (AR v2)
Track 2 accurately ripped (confidence 1) [982C7E11] (AR v2)
Track 3 accurately ripped (confidence 1) [7701B751] (AR v2)
Track 4 accurately ripped (confidence 1) [1FAEF19B] (AR v2)
Track 5 accurately ripped (confidence 1) [05EA8B41] (AR v2)
Track 6 accurately ripped (confidence 1) [A5281F6C] (AR v2)
Track 7 accurately ripped (confidence 1) 0A20307 (AR v2)
Track 8 accurately ripped (confidence 1) [0258FAD3] (AR v2)
Track 9 accurately ripped (confidence 1) [77FA1D82] (AR v2)
Track 10 accurately ripped (confidence 1) [7B7C1114] (AR v2)
Track 11 accurately ripped (confidence 1) [706654EE] (AR v2)
Track 12 accurately ripped (confidence 1) [3A0B0E6D] (AR v2)
Track 13 accurately ripped (confidence 1) [E607DBF0] (AR v2)
Track 14 accurately ripped (confidence 1) [7CAF8B80] (AR v2)

All tracks accurately ripped

End of status report

---- CUETools DB Plugin V2.1.3

[CTDB TOCID: 2LiWvpPYgkOn_KleZkEp8mTmiMQ-] found, Submit result: 2LiWvpPYgkOn_KleZkEp8mTmiMQ- has been confirmed
[198a74bf] (5/5) Accurately ripped

==== Log checksum 6A4C121065573CA2824214EEBDE25F72D798D33D8F807210528A5AA0E16EDF21 ====

foobar2000 1.2.9 / Dynamic Range Meter 1.1.1
log date: 2015-02-15 12:46:12

--
Analyzed: Ex Pistols / The Many Faces Of Sex Pistols
--

DR Peak RMS Duration Track
--
DR5 -0.02 dB -6.25 dB 3:20 01-Don't Fear That Your life Will Come To An End
DR4 -0.02 dB -5.25 dB 3:44 02-Schools Are Prisons
DR6 -0.02 dB -7.05 dB 3:07 03-Judging Minds
DR5 -0.02 dB -6.30 dB 3:30 04-Boasting
DR6 -0.01 dB -6.70 dB 3:25 05-Revolution In The Classroom
DR6 -0.02 dB -6.50 dB 3:10 06-Happy Families
DR6 -0.02 dB -9.91 dB 3:32 07-The Land Of Hope And Glory
DR6 -0.02 dB -7.31 dB 2:41 08-We're Dancing On The Dole
DR6 -0.02 dB -6.75 dB 4:19 09-The Great British Weekend
DR5 -0.02 dB -6.91 dB 3:41 10-Cliches
DR6 -0.02 dB -6.85 dB 3:31 11-Nicotine Addict
DR6 -0.02 dB -6.97 dB 3:29 12-Daily Life
DR6 -0.02 dB -6.74 dB 3:05 13-Can't See The Bars 'Till We Try To Get Out
DR6 -0.02 dB -6.30 dB 3:05 14-Factory
--

Number of tracks: 14
Official DR value: DR6

Samplerate: 44100 Hz
Channels: 2
Bits per sample: 16
Bitrate: 998 kbps
Codec: FLAC

[CUETools log; Date: 14.02.2015 0:05:27; Version: 2.1.4]
[CTDB TOCID: 2LiWvpPYgkOn_KleZkEp8mTmiMQ-] found.
Track | CTDB Status
1 | (6/6) Accurately ripped
2 | (6/6) Accurately ripped
3 | (6/6) Accurately ripped
4 | (6/6) Accurately ripped
5 | (6/6) Accurately ripped
6 | (6/6) Accurately ripped
7 | (6/6) Accurately ripped
8 | (6/6) Accurately ripped
9 | (6/6) Accurately ripped
10 | (6/6) Accurately ripped
11 | (6/6) Accurately ripped
12 | (6/6) Accurately ripped
13 | (6/6) Accurately ripped
14 | (6/6) Accurately ripped
[AccurateRip ID: 0018ab9c-01075ab3-b20b2d0e] found.
Track [ CRC | V2 ] Status
01 [d3c5292a|80575385] (0+1/1) Accurately ripped
02 [62dd72be|982c7e11] (0+1/1) Accurately ripped
03 [85ddf066|7701b751] (0+1/1) Accurately ripped
04 [ade6b574|1faef19b] (0+1/1) Accurately ripped
05 [0ee361aa|05ea8b41] (0+1/1) Accurately ripped
06 [6774a33b|a5281f6c] (0+1/1) Accurately ripped
07 [dfc81a75|b0a20307] (0+1/1) Accurately ripped
08 [5e6f329a|0258fad3] (0+1/1) Accurately ripped
09 [ebcb6558|77fa1d82] (0+1/1) Accurately ripped
10 [f0ef5ba7|7b7c1114] (0+1/1) Accurately ripped
11 [1a7a2685|706654ee] (0+1/1) Accurately ripped
12 [61580bfb|3a0b0e6d] (0+1/1) Accurately ripped
13 [01029741|e607dbf0] (0+1/1) Accurately ripped
14 799c665|7caf8b80 (0+1/1) Accurately ripped

Track Peak [ CRC32 ] [W/O NULL] [ LOG ]
-- 99,9 [F3DA1968] [6D64C99A] CRC32
01 99,7 [1815DCDF] [DFA7EB36]
02 99,7 [62FB83D2] [8751E04C]
03 99,7 [CD018608] [44420075]
04 99,7 [28558B88] [7632A722]
05 99,9 [0D495350] [AE93DA71]
06 99,7 [CE80D4A3] [0DFE4D8D]
07 99,7 [0DD39B88] [F2CF5B04]
08 99,7 [55304B9D] [CBA035B4]
09 99,7 [8FB1BD80] [AAC7500E]
10 99,7 [17045372] [4A9275EF]
11 99,7 0A3A64B [268FBBBF]
12 99,7 [CAAD07D0] [52535F9F]
13 99,7 [9A1FC7D6] [EBB01431]
14 99,7 [107767C6] [6CAEE465]

http://i57.fastpic.ru/big/2015/0217/6b/332059f0ed3407e3f4d121dd9006bf6b.jpg

Tracklist CD03 - Live, Studio, Sid Sings & Rarities:

01. I Wanna Be Me 03:11
02. Satellite 04:06
03. Submission 04:13
04. Pretty Vacant (Live) 02:58
05. C'Mon Everybody (Eddie Cochran's Song Sid On Vocals) 01:53
06. My Way 03:44
07. Chatterbox (New York Dolls Song - Live) 01:50
08. Something Else (Eddie Cochran's Song - Live) 02:04
09. Belsen Was A Gas (Sex Pistols Song - Live) 02:24
10. Chinese Rocks (Heartbreakers Song - Live) 02:36
11. Search & Destroy (Iggy & The Stooges Song - Live) 03:00
12. Dancing On The Dole (Early Version) 02:30
13. Revolution In The Classroom (Early Version) 03:08
14. The Land Of Hope And Glory (Original Single Version) 04:02

Exact Audio Copy V1.0 beta 3 from 29. August 2011

EAC extraction logfile from 17. January 2015, 11:44

Various Artists / The Many Faces Of Sex Pistols

Used drive : PIONEER BD-RW BDR-TD03 Adapter: 0 ID: 1

Read mode : Secure
Utilize accurate stream : Yes
Defeat audio cache : Yes
Make use of C2 pointers : No

Read offset correction : 667
Overread into Lead-In and Lead-Out : No
Fill up missing offset samples with silence : Yes
Delete leading and trailing silent blocks : No
Null samples used in CRC calculations : Yes
Used interface : Native Win32 interface for Win NT & 2000

Used output format : User Defined Encoder
Selected bitrate : 768 kBit/s
Quality : High
Add ID3 tag : No
Command line compressor : C:\Program Files (x86)\Exact Audio Copy\FLAC\FLAC.EXE
Additional command line options : -6 -V -T "ARTIST=%artist%" -T "TITLE=%title%" -T "ALBUM=%albumtitle%" -T "DATE=%year%" -T "TRACKNUMBER=%tracknr%" -T "GENRE=%genre%" -T "COMMENT=%comment%" -T "BAND=%albuminterpret%" -T "ALBUMARTIST=%albuminterpret%" -T "COMPOSER=%composer%" %haslyrics%--tag-from-file=LYRICS="%lyricsfile%"%haslyrics% -T "DISCNUMBER=%cdnumber%" -T "TOTALDISCS=%totalcds%" -T "TOTALTRACKS=%numtracks%" %hascover%--picture="%coverfile%"%hascover% %source% -o %dest%

TOC of the extracted CD Track | Start | Length | Start sector | End sector
-----------
1 | 0:00.00 | 3:11.00 | 0 | 14324
2 | 3:11.00 | 4:06.00 | 14325 | 32774
3 | 7:17.00 | 4:13.07 | 32775 | 51756
4 | 11:30.07 | 2:58.30 | 51757 | 65136
5 | 14:28.37 | 1:53.30 | 65137 | 73641
6 | 16:21.67 | 3:44.00 | 73642 | 90441
7 | 20:05.67 | 1:50.00 | 90442 | 98691
8 | 21:55.67 | 2:04.45 | 98692 | 108036
9 | 24:00.37 | 2:24.00 | 108037 | 118836
10 | 26:24.37 | 2:36.45 | 118837 | 130581
11 | 29:01.07 | 3:00.22 | 130582 | 144103
12 | 32:01.29 | 2:30.07 | 144104 | 155360
13 | 34:31.36 | 3:08.60 | 155361 | 169520
14 | 37:40.21 | 4:02.67 | 169521 | 187737

Range status and errors

Selected range Filename C:\Users\Deris\Desktop\TriSePi\cd3\Various Artists - The Many Faces Of Sex Pistols.wav Peak level 99.8 %
Extraction speed 4.4 X
Range quality 100.0 %
Test CRC 6CE8BC9C
Copy CRC 6CE8BC9C
Copy OK

No errors occurred


AccurateRip summary

Track 1 accurately ripped (confidence 1) [A187B7CD] (AR v2)
Track 2 accurately ripped (confidence 1) [2A98E165] (AR v2)
Track 3 accurately ripped (confidence 1) [44135794] (AR v2)
Track 4 accurately ripped (confidence 1) [06D45DE9] (AR v2)
Track 5 accurately ripped (confidence 1) [6F9CFD1B] (AR v2)
Track 6 accurately ripped (confidence 1) [A970FECA] (AR v2)
Track 7 accurately ripped (confidence 1) [E7E0A7DD] (AR v2)
Track 8 accurately ripped (confidence 1) [222D659B] (AR v2)
Track 9 accurately ripped (confidence 1) [87C403F8] (AR v2)
Track 10 accurately ripped (confidence 1) [534D4222] (AR v2)
Track 11 accurately ripped (confidence 1) [50DC11F6] (AR v2)
Track 12 accurately ripped (confidence 1) [37ECC947] (AR v2)
Track 13 accurately ripped (confidence 1) [E35703DE] (AR v2)
Track 14 accurately ripped (confidence 1) [35F580F0] (AR v2)

All tracks accurately ripped

End of status report

---- CUETools DB Plugin V2.1.3

[CTDB TOCID: gnIznMXjJD8E2WNM0iU6Tz5W7yU-] found, Submit result: gnIznMXjJD8E2WNM0iU6Tz5W7yU- has been confirmed
[e2fda772] (4/4) Accurately ripped

==== Log checksum 94F9DF707E9ECD1CD39E9F71390081B2ADB2A2EB675CDF124E7EE86BB5861883 ====

foobar2000 1.2.9 / Dynamic Range Meter 1.1.1
log date: 2015-02-15 12:46:25

--
Analyzed: Ex Pistols / The Many Faces Of Sex Pistols
--

DR Peak RMS Duration Track
--
DR7 -0.01 dB -8.52 dB 2:30 12-Dancing On The Dole (Early Version)
DR6 -0.01 dB -7.09 dB 3:09 13-Revolution In The Classroom (Early Version)
DR5 -0.01 dB -6.32 dB 4:03 14-The Land Of Hope And Glory (Original Single Version)
--

Number of tracks: 3
Official DR value: DR6

Samplerate: 44100 Hz
Channels: 2
Bits per sample: 16
Bitrate: 929 kbps
Codec: FLAC

--
Analyzed: Sex Pistols / The Many Faces Of Sex Pistols (1-5)
Sid Vicious / The Many Faces Of Sex Pistols (6-11)
--

DR Peak RMS Duration Track
--
DR3 -0.01 dB -3.82 dB 3:11 01-I Wanna Be Me
DR5 -0.01 dB -5.46 dB 4:06 02-Satellite
DR4 -0.01 dB -4.59 dB 4:13 03-Submission
DR5 -0.01 dB -5.88 dB 2:58 04-Pretty Vacant (Live)
DR6 -0.01 dB -6.58 dB 1:53 05-C'Mon Everybody (Eddie Cochran's Song Sid On Vocals)
DR8 -0.01 dB -9.94 dB 3:44 06-My Way
DR6 -0.01 dB -6.42 dB 1:50 07-Chatterbox (New York Dolls Song - Live)
DR5 -0.01 dB -5.90 dB 2:05 08-Something Else (Eddie Cochran's Song - Live)
DR5 -0.01 dB -5.79 dB 2:24 09-Belsen Was A Gas (Sex Pistols Song - Live)
DR5 -0.01 dB -5.02 dB 2:37 10-Chinese Rocks (Heartbreakers Song - Live)
DR4 -0.01 dB -4.89 dB 3:00 11-Search & Destroy (Iggy & The Stooges Song - Live)
--

Number of tracks: 11
Official DR value: DR5

Samplerate: 44100 Hz
Channels: 2
Bits per sample: 16
Bitrate: 929 kbps
Codec: FLAC

[CUETools log; Date: 14.02.2015 0:05:49; Version: 2.1.4]
[CTDB TOCID: gnIznMXjJD8E2WNM0iU6Tz5W7yU-] found.
Track | CTDB Status
1 | (5/5) Accurately ripped
2 | (5/5) Accurately ripped
3 | (5/5) Accurately ripped
4 | (5/5) Accurately ripped
5 | (5/5) Accurately ripped
6 | (5/5) Accurately ripped
7 | (5/5) Accurately ripped
8 | (5/5) Accurately ripped
9 | (5/5) Accurately ripped
10 | (5/5) Accurately ripped
11 | (5/5) Accurately ripped
12 | (5/5) Accurately ripped
13 | (5/5) Accurately ripped
14 | (5/5) Accurately ripped
[AccurateRip ID: 0015fcb6-00e5ca7d-be09c70e] found.
Track [ CRC | V2 ] Status
01 [e2b247b1|a187b7cd] (0+1/1) Accurately ripped
02 [1350f7da|2a98e165] (0+1/1) Accurately ripped
03 [394d5823|44135794] (0+1/1) Accurately ripped
04 [ef15106c|06d45de9] (0+1/1) Accurately ripped
05 [569f62b5|6f9cfd1b] (0+1/1) Accurately ripped
06 [392f3a31|a970feca] (0+1/1) Accurately ripped
07 [ad1e01e8|e7e0a7dd] (0+1/1) Accurately ripped
08 [2b6fe92b|222d659b] (0+1/1) Accurately ripped
09 [ed46e2c5|87c403f8] (0+1/1) Accurately ripped
10 [d5ef946f|534d4222] (0+1/1) Accurately ripped
11 [f52b7443|50dc11f6] (0+1/1) Accurately ripped
12 [f91bb917|37ecc947] (0+1/1) Accurately ripped
13 [62679ba8|e35703de] (0+1/1) Accurately ripped
14 [565ea76f|35f580f0] (0+1/1) Accurately ripped

Track Peak [ CRC32 ] [W/O NULL] [ LOG ]
-- 99,8 [6CE8BC9C] [14513CF9] CRC32
01 99,8 [64F75FB0] [149D177E]
02 99,8 [C675A34F] [3A0EA0D8]
03 99,8 [DECDA032] [3070FF73]
04 99,8 [F4F71B3A] [D573CD85]
05 99,8 [E9F57F37] [67A46996]
06 99,8 [E3093F04] FC60511
07 99,8 6944FEC [40F926E7]
08 99,8 [36783D93] [3C51877E]
09 99,8 [42378F5E] [C42DB8D2]
10 99,8 [93CB92F1] [4F2F301C]
11 99,8 [A9C89F49] [0FCFC227]
12 99,8 [0E9A5451] [C243DF85]
13 99,8 [C3097606] [C9DF6AAB]
14 99,8 [499383CF] [6B1FC731]

http://i59.fastpic.ru/big/2015/0217/d1/26968570185abe3f1dbb67d4371c54d1.jpg

DOWNLOAD LINKS:
Buy Premium To Support Me & Get Resumable Support & Max Speed


Links are Interchangeable - No Password - Single Extraction

The Many Faces Of Sex Pistols: Studio Sessions, Live Gigs & Rarities (2013) Fast Download



 
 
 
Dear visitor, you went to the site as an unregistered user. We encourage you to register or enter the site under your name.
 
   
 
 (Votes #: 0)