2013Zone For Latest Downloads

 
     
 
Legal Downloads » Music » The Many Faces Of Yes: A Journey Through The Inner World Of Yes (2014)
Menu
Home Applications
Games Movies
Music TV Shows
Torrents Graphics

Sitemap

RSS
 
Advanced Search
Last News
Site Info
Top Contributors:
  1    supper88 32766
  2    admin 32671
  3    Whisky 10080
  4    Shark_ 8911
  5    creativelivenew 8706
  6    whathesupa 2799
  7    candymypost 840
  8    hvnteam 629
  9    vuong87 3


Articles:
  This Hour: 20
  Today: 20
  This Month: 58
  All Time: 515616


Torrents:
  Today: 20
  Yesterday: 0
  All Time: 156702


Membership:
  Registered Today :0
  This Hour:0
  This Month:0
  Total:14
  Banned:1

{online}
{inform_torrent}
Friend:
We Recomend
Trend
Trend
Ad1

Search In Site

Music : The Many Faces Of Yes: A Journey Through The Inner World Of Yes (2014)
 
http://i59.fastpic.ru/big/2015/0217/c4/e7abe327444724297aa59d41504919c4.jpg

The Many Faces Of Yes: A Journey Through The Inner World Of Yes (2014)
EAC | Flac(Image) + Cue + Log & MP3 CBR 320Kbps
3CD | Music Brokers, MBB7189 | ~ 1162 or 435 Mb | Scans(300dpi, jpg) Included
Progressive Rock

"The ultimate Yes tribute and collection! Features Yes and many of their side projects and solo work. Includes previously unreleased tracks and rarities..."

Along with Emerson, Lake & Palmer, King Crimson and Genesis, Yes is without a doubts the most important of the British progressive rock band of all time. The original sound of the group was a something never Heard of when its self- titled debut album came out in 1969. In The Many Faces of Yes we present an unknown side of the band, with recordings by the group as a whole and also by solo members, including rarities and other gems. In CD 1, "The BBC Sessions", we presented the group with their original lineup (Jon Anderson on vocals, Peter Banks on guitar, Bill Bruford on drums, Chris Squire on bass and Tony Kaye on keyboards) with their performanc es in the London's BBC Radio. They play songs from their first album "Sweetness, Looking Around" plus a fantastic version of The Beatles' "Every Little Thing". It also contains material from their second album "Time And A Word" (1970): "Then", "Everydays", "Sweet Dreams", "Astral Traveller" and the audacious version of "No Opportunity Necessary, No Experience Needed" by Richie Havens. In these incredible BBC Sessions we can also find "Dear Father", a song that appeared (in a studio version) many years later in the "Yesterdays" compilation. It also contains a couple of unreleased tracks: "Somethin's Coming" and "For Everyone". The CD 2 is titled "Before and After Yes' Projects" and contains songs by several members of the group recorded before and after they were part of the band. We start with the monumental "Catherine Howard", from the unforgettable album "The Six Wives Of Henry VIII" by keyboard player Rick Wakeman. Then we follow up with songs by "Flash" (the project that guitarist Peter Banks put together after he left the group in 1970). We also present two songs "Lifetime" and "Monday Morning Eyes," from "In The Can" the band's second album, released in 1972. This amazing selection is completed with "The Last Eclipse" from "Two Sides Of Peter Banks", Banks' solo debut. It's worth no note that he wrote the album along some of the best progressive rock's musicians from that era: (Phil Collins, guitarist Jan Akkerman from Focus and Steve Hackett from Genesis). The CD 3, is titled "Playin' Their Favourite Songs" and its name says it all. Members and former members of Yes playing songs from Pink Floyd, Genesis and even the AOR classic "More Than A Feeling" by Boston. The Many Faces of Yes, is an essential album for any collector of symphonic rock."
The Many Faces Of Yes: A Journey Through The Inner World Of Yes (2014):

http://i68.fastpic.ru/big/2015/0217/2b/5cc08b7c954b02e0c7123065a7714a2b.jpg

Tracklist CD1 - The BBC Sessions:

01. Then 04:19
02. Sweet Dreams 03:27
03. Looking Around 03:40
04. No Opportunity Necessary, No Experience Needed 04:16
05. Everydays 05:54
06. Astral Traveller 05:47
07. Every Little Thing 06:38
08. Sweetness 04:14
09. Something's Coming 07:39
10. Dear Father 05:34
11. For Everyone 04:36

Exact Audio Copy V1.0 beta 3 from 29. August 2011

EAC extraction logfile from 24. January 2015, 0:42

Yes / The Many Faces Of Yes [CD1]

Used drive : PIONEER BD-RW BDR-TD03 Adapter: 0 ID: 1

Read mode : Secure
Utilize accurate stream : Yes
Defeat audio cache : Yes
Make use of C2 pointers : No

Read offset correction : 667
Overread into Lead-In and Lead-Out : No
Fill up missing offset samples with silence : Yes
Delete leading and trailing silent blocks : No
Null samples used in CRC calculations : Yes
Used interface : Native Win32 interface for Win NT & 2000

Used output format : User Defined Encoder
Selected bitrate : 768 kBit/s
Quality : High
Add ID3 tag : No
Command line compressor : C:\Program Files (x86)\Exact Audio Copy\FLAC\FLAC.EXE
Additional command line options : -6 -V -T "ARTIST=%artist%" -T "TITLE=%title%" -T "ALBUM=%albumtitle%" -T "DATE=%year%" -T "TRACKNUMBER=%tracknr%" -T "GENRE=%genre%" -T "COMMENT=%comment%" -T "BAND=%albuminterpret%" -T "ALBUMARTIST=%albuminterpret%" -T "COMPOSER=%composer%" %haslyrics%--tag-from-file=LYRICS="%lyricsfile%"%haslyrics% -T "DISCNUMBER=%cdnumber%" -T "TOTALDISCS=%totalcds%" -T "TOTALTRACKS=%numtracks%" %hascover%--picture="%coverfile%"%hascover% %source% -o %dest%

TOC of the extracted CD Track | Start | Length | Start sector | End sector
-----------
1 | 0:00.00 | 4:19.35 | 0 | 19459
2 | 4:19.35 | 3:27.62 | 19460 | 35046
3 | 7:47.22 | 3:40.30 | 35047 | 51576
4 | 11:27.52 | 4:16.45 | 51577 | 70821
5 | 15:44.22 | 5:54.63 | 70822 | 97434
6 | 21:39.10 | 5:47.51 | 97435 | 123510
7 | 27:26.61 | 6:38.46 | 123511 | 153406
8 | 34:05.32 | 4:14.26 | 153407 | 172482
9 | 38:19.58 | 7:39.46 | 172483 | 206953
10 | 45:59.29 | 5:34.00 | 206954 | 232003
11 | 51:33.29 | 4:36.61 | 232004 | 252764

Range status and errors

Selected range Filename C:\Users\Deris\Desktop\TriSey\cd1\Yes - The Many Faces Of Yes [CD1].wav Peak level 99.7 %
Extraction speed 4.7 X
Range quality 100.0 %
Test CRC 9A14627D
Copy CRC 9A14627D
Copy OK

No errors occurred


AccurateRip summary

Track 1 accurately ripped (confidence 1) [E67D1718] (AR v2)
Track 2 accurately ripped (confidence 1) [6443F162] (AR v2)
Track 3 accurately ripped (confidence 1) [896A0229] (AR v2)
Track 4 accurately ripped (confidence 1) [A3FD3C02] (AR v2)
Track 5 accurately ripped (confidence 1) [71925CF3] (AR v2)
Track 6 accurately ripped (confidence 1) [23C92E1E] (AR v2)
Track 7 accurately ripped (confidence 1) [C2471BA1] (AR v2)
Track 8 accurately ripped (confidence 1) [56BB2EC8] (AR v2)
Track 9 accurately ripped (confidence 1) [8FB29B63] (AR v2)
Track 10 accurately ripped (confidence 1) [6F3E2CC8] (AR v2)
Track 11 accurately ripped (confidence 1) [7B2E21DB] (AR v2)

All tracks accurately ripped

End of status report

---- CUETools DB Plugin V2.1.3

[CTDB TOCID: Y6Ib69iOcougA48EoAA7QUiNq1I-] found, Submit result: Y6Ib69iOcougA48EoAA7QUiNq1I- has been confirmed
[700f40c8] (3/3) Accurately ripped

==== Log checksum 2B56D589FAB056006163412003328A4602DD165988A3F1ADECEB377D371197AF ====

foobar2000 1.2.9 / Dynamic Range Meter 1.1.1
log date: 2015-02-15 00:34:44

--
Analyzed: Yes / The Many Faces Of Yes [CD1]
--

DR Peak RMS Duration Track
--
DR10 -1.88 dB -14.13 dB 4:19 01-Then
DR10 -1.07 dB -13.58 dB 3:28 02-Sweet Dreams
DR11 -1.60 dB -14.29 dB 3:40 03-Looking Around
DR9 -3.28 dB -12.99 dB 4:17 04-No Opportunity Necessary, No Experience Needed
DR10 -0.79 dB -14.47 dB 5:55 05-Everydays
DR11 -0.99 dB -13.65 dB 5:48 06-Astral Traveller
DR10 -0.02 dB -12.73 dB 6:39 07-Every Little Thing
DR10 -1.22 dB -14.20 dB 4:14 08-Sweetness
DR11 -1.78 dB -14.79 dB 7:40 09-Something's Coming
DR11 -1.15 dB -14.10 dB 5:34 10-Dear Father
DR10 -0.96 dB -13.33 dB 4:37 11-For Everyone
--

Number of tracks: 11
Official DR value: DR10

Samplerate: 44100 Hz
Channels: 2
Bits per sample: 16
Bitrate: 715 kbps
Codec: FLAC

[CUETools log; Date: 12.02.2015 23:20:23; Version: 2.1.4]
[CTDB TOCID: Y6Ib69iOcougA48EoAA7QUiNq1I-] found.
Track | CTDB Status
1 | (4/4) Accurately ripped
2 | (4/4) Accurately ripped
3 | (4/4) Accurately ripped
4 | (4/4) Accurately ripped
5 | (4/4) Accurately ripped
6 | (4/4) Accurately ripped
7 | (4/4) Accurately ripped
8 | (4/4) Accurately ripped
9 | (4/4) Accurately ripped
10 | (4/4) Accurately ripped
11 | (4/4) Accurately ripped
[AccurateRip ID: 00159929-00c01402-940d2a0b] found.
Track [ CRC | V2 ] Status
01 [c07d3822|e67d1718] (0+4/4) Accurately ripped
02 [0a52f1d2|6443f162] (0+4/4) Accurately ripped
03 [0a514977|896a0229] (0+4/4) Accurately ripped
04 [dda71341|a3fd3c02] (0+4/4) Accurately ripped
05 [5a30f20f|71925cf3] (0+4/4) Accurately ripped
06 [e5a37e93|23c92e1e] (0+4/4) Accurately ripped
07 [d5fea609|c2471ba1] (0+4/4) Accurately ripped
08 [d58f7aff|56bb2ec8] (0+4/4) Accurately ripped
09 [0d6f0dd2|8fb29b63] (0+4/4) Accurately ripped
10 [4242f290|6f3e2cc8] (0+4/4) Accurately ripped
11 [1a416fb8|7b2e21db] (0+4/4) Accurately ripped

Track Peak [ CRC32 ] [W/O NULL] [ LOG ]
-- 99,7 [9A14627D] [0472AE0C] CRC32
01 80,5 [DFF4ECA1] [1FE0D446]
02 88,4 [D4E45BE4] [C828D2FE]
03 83,1 [24FDD2B6] [EFEEA856]
04 68,5 [A3E572C1] [AD0D74C5]
05 91,3 [9EA00F1D] [3478C9A5]
06 89,2 [63966A31] [2F771ED0]
07 99,7 [879415BE] [A97B0C84]
08 86,8 [41A73169] [F6F1DCE7]
09 81,4 [E27224D3] [CB000B45]
10 87,6 6BE98B9 [A2B2B86B]
11 89,5 [D9D88C31] [E1003F60]

http://i65.fastpic.ru/big/2015/0217/0a/2453e4edefb8ed151381cd0897043d0a.jpg

Tracklist CD2 - Projects Before and After Yes:

01. Rick Wakeman - Catherine Howard 09:14
02. Flash - Lifetime 10:07
03. Syn - Flowerman 02:34
04. Peter Banks - Last Eclipse 02:27
05. Rick Wakeman - The Revealing Silence Of God 07:57
06. Syn - 14 Hour Technicolour Dream 02:57
07. Flash - Monday Morning Eyes 05:12
08. Rick Wakeman - Long Distance Runaround 03:25
09. Asia - Sole Survivor 06:16
10. Rick Wakeman - America 10:00
11. Asia - Here Comes The Feeling 05:26
12. Buggles - Video Killed The Radio Star 03:21

Exact Audio Copy V1.0 beta 3 from 29. August 2011

EAC extraction logfile from 24. January 2015, 13:19

Yes / The Many Faces Of Yes [CD2]

Used drive : PIONEER BD-RW BDR-TD03 Adapter: 0 ID: 1

Read mode : Secure
Utilize accurate stream : Yes
Defeat audio cache : Yes
Make use of C2 pointers : No

Read offset correction : 667
Overread into Lead-In and Lead-Out : No
Fill up missing offset samples with silence : Yes
Delete leading and trailing silent blocks : No
Null samples used in CRC calculations : Yes
Used interface : Native Win32 interface for Win NT & 2000

Used output format : User Defined Encoder
Selected bitrate : 768 kBit/s
Quality : High
Add ID3 tag : No
Command line compressor : C:\Program Files (x86)\Exact Audio Copy\FLAC\FLAC.EXE
Additional command line options : -6 -V -T "ARTIST=%artist%" -T "TITLE=%title%" -T "ALBUM=%albumtitle%" -T "DATE=%year%" -T "TRACKNUMBER=%tracknr%" -T "GENRE=%genre%" -T "COMMENT=%comment%" -T "BAND=%albuminterpret%" -T "ALBUMARTIST=%albuminterpret%" -T "COMPOSER=%composer%" %haslyrics%--tag-from-file=LYRICS="%lyricsfile%"%haslyrics% -T "DISCNUMBER=%cdnumber%" -T "TOTALDISCS=%totalcds%" -T "TOTALTRACKS=%numtracks%" %hascover%--picture="%coverfile%"%hascover% %source% -o %dest%

TOC of the extracted CD Track | Start | Length | Start sector | End sector
-----------
1 | 0:00.00 | 9:14.37 | 0 | 41586
2 | 9:14.37 | 10:07.50 | 41587 | 87161
3 | 19:22.12 | 2:34.37 | 87162 | 98748
4 | 21:56.49 | 2:27.25 | 98749 | 109798
5 | 24:23.74 | 7:57.00 | 109799 | 145573
6 | 32:20.74 | 2:57.50 | 145574 | 158898
7 | 35:18.49 | 5:12.12 | 158899 | 182310
8 | 40:30.61 | 3:25.25 | 182311 | 197710
9 | 43:56.11 | 6:16.33 | 197711 | 225943
10 | 50:12.44 | 10:00.12 | 225944 | 270955
11 | 60:12.56 | 5:26.12 | 270956 | 295417
12 | 65:38.68 | 3:21.50 | 295418 | 310542

Range status and errors

Selected range Filename C:\Users\Deris\Desktop\TriSey\cd2\Yes - The Many Faces Of Yes [CD2].wav Peak level 100.0 %
Extraction speed 5.0 X
Range quality 100.0 %
Test CRC 38C6FB6E
Copy CRC 38C6FB6E
Copy OK

No errors occurred


AccurateRip summary

Track 1 accurately ripped (confidence 1) [A05353FD] (AR v2)
Track 2 accurately ripped (confidence 1) [FBD04F11] (AR v2)
Track 3 accurately ripped (confidence 1) 64991FA (AR v2)
Track 4 accurately ripped (confidence 1) [1A9D0E90] (AR v2)
Track 5 accurately ripped (confidence 1) [11C227F5] (AR v2)
Track 6 accurately ripped (confidence 1) [06BACA4B] (AR v2)
Track 7 accurately ripped (confidence 1) [E3A4D032] (AR v2)
Track 8 accurately ripped (confidence 1) [E3B0F8EB] (AR v2)
Track 9 accurately ripped (confidence 1) [371C4AED] (AR v2)
Track 10 accurately ripped (confidence 1) FBBE55A (AR v2)
Track 11 accurately ripped (confidence 1) [EAE0C5A7] (AR v2)
Track 12 accurately ripped (confidence 1) [8C7BBF9C] (AR v2)

All tracks accurately ripped

End of status report

---- CUETools DB Plugin V2.1.3

[CTDB TOCID: 9Z6lsTvH55ggrtoAw8cn4yGbAq8-] found, Submit result: 9Z6lsTvH55ggrtoAw8cn4yGbAq8- has been confirmed
[df201d29] (3/3) Accurately ripped

==== Log checksum 52C32FA775770440B48AA0908565C95B70343963E21046C5BADD18770A13300E ====

foobar2000 1.2.9 / Dynamic Range Meter 1.1.1
log date: 2015-02-15 00:35:06

--
Analyzed: Yes / The Many Faces Of Yes [CD2]
--

DR Peak RMS Duration Track
--
DR8 0.00 dB -10.53 dB 9:14 01-Rick Wakeman / Catherine Howard
DR7 0.00 dB -9.00 dB 10:08 02-Flash / Lifetime
DR6 -1.69 dB -7.99 dB 2:34 03-Syn / Flowerman
DR10 -0.01 dB -13.74 dB 2:27 04-Peter Banks / Last Eclipse
DR7 0.00 dB -9.48 dB 7:57 05-Rick Wakeman / The Revealing Silence Of God
DR7 -0.11 dB -7.94 dB 2:58 06-Syn / 14 Hour Technicolour Dream
DR7 0.00 dB -9.48 dB 5:12 07-Flash / Monday Morning Eyes
DR8 0.00 dB -10.38 dB 3:25 08-Rick Wakeman / Long Distance Runaround
DR8 0.00 dB -9.40 dB 6:16 09-Asia / Sole Survivor
DR10 0.00 dB -11.55 dB 10:00 10-Rick Wakeman / America
DR7 0.00 dB -8.80 dB 5:26 11-Asia / Here Comes The Feeling
DR8 -1.03 dB -10.61 dB 3:22 12-Buggles / Video Killed The Radio Star
--

Number of tracks: 12
Official DR value: DR8

Samplerate: 44100 Hz
Channels: 2
Bits per sample: 16
Bitrate: 926 kbps
Codec: FLAC

[CUETools log; Date: 12.02.2015 23:20:59; Version: 2.1.4]
[CTDB TOCID: 9Z6lsTvH55ggrtoAw8cn4yGbAq8-] found.
Track | CTDB Status
1 | (5/5) Accurately ripped
2 | (5/5) Accurately ripped
3 | (5/5) Accurately ripped
4 | (5/5) Accurately ripped
5 | (5/5) Accurately ripped
6 | (5/5) Accurately ripped
7 | (5/5) Accurately ripped
8 | (5/5) Accurately ripped
9 | (5/5) Accurately ripped
10 | (5/5) Accurately ripped
11 | (5/5) Accurately ripped
12 | (5/5) Accurately ripped
[AccurateRip ID: 00206b6d-012704a3-94102c0c] found.
Track [ CRC | V2 ] Status
01 [2f9722ba|a05353fd] (0+4/4) Accurately ripped
02 [51aa834e|fbd04f11] (0+4/4) Accurately ripped
03 [623e59f6|b64991fa] (0+4/4) Accurately ripped
04 [1546e61a|1a9d0e90] (0+4/4) Accurately ripped
05 [5e2ee9f5|11c227f5] (0+4/4) Accurately ripped
06 d46fa91|06baca4b (0+4/4) Accurately ripped
07 ade8ee0|e3a4d032 (0+4/4) Accurately ripped
08 [aefd8057|e3b0f8eb] (0+4/4) Accurately ripped
09 [e68ff9ee|371c4aed] (0+4/4) Accurately ripped
10 [c691429e|bfbbe55a] (0+4/4) Accurately ripped
11 [3f1ec0b5|eae0c5a7] (0+4/4) Accurately ripped
12 [a36bbca2|8c7bbf9c] (0+4/4) Accurately ripped

Track Peak [ CRC32 ] [W/O NULL] [ LOG ]
-- 100,0 [38C6FB6E] [42ABE1F8] CRC32
01 100,0 [10F6952C] [2B8E5E69]
02 100,0 [31C9F7E6] [7C414316]
03 82,3 [53548ADF] [319B6780]
04 99,8 [191E0E47] [C6BEEB7C]
05 100,0 [3AD29E42] [1D7C1104]
06 98,7 [8C396ECA] [C8D8126E]
07 100,0 [07F95F63] [5AF01988]
08 100,0 [EFB2E8F4] [463C5BAB]
09 100,0 [E3B86D5E] [04FD6065]
10 100,0 [D01FC2BD] [8620BB99]
11 100,0 [27CB3A68] [F13AB032]
12 88,8 [9EF3E2DE] [E426D3E6]

http://i64.fastpic.ru/big/2015/0217/5c/c3c698029a6b1fa86786c3c1efdcc95c.jpg

Tracklist CD3 - Playin' Their Favourite Songs:

01. Breathe 04:41
02. Money 06:22
03. Brain Damage 03:28
04. Comfortably Numb 06:52
05. The Great Gig In The Sky 04:39
06. In The Flesh? 03:04
07. Los Endos 05:59
08. Us And Them 07:34
09. On The Run 03:16
10. Goodbye Blue Sky 02:41
11. Eclipse 01:49
12. More Than A Feeling 04:39

Exact Audio Copy V1.0 beta 3 from 29. August 2011

EAC extraction logfile from 24. January 2015, 16:11

Yes / The Many Faces Of Yes [CD3]

Used drive : PIONEER BD-RW BDR-TD03 Adapter: 0 ID: 1

Read mode : Secure
Utilize accurate stream : Yes
Defeat audio cache : Yes
Make use of C2 pointers : No

Read offset correction : 667
Overread into Lead-In and Lead-Out : No
Fill up missing offset samples with silence : Yes
Delete leading and trailing silent blocks : No
Null samples used in CRC calculations : Yes
Used interface : Native Win32 interface for Win NT & 2000

Used output format : User Defined Encoder
Selected bitrate : 768 kBit/s
Quality : High
Add ID3 tag : No
Command line compressor : C:\Program Files (x86)\Exact Audio Copy\FLAC\FLAC.EXE
Additional command line options : -6 -V -T "ARTIST=%artist%" -T "TITLE=%title%" -T "ALBUM=%albumtitle%" -T "DATE=%year%" -T "TRACKNUMBER=%tracknr%" -T "GENRE=%genre%" -T "COMMENT=%comment%" -T "BAND=%albuminterpret%" -T "ALBUMARTIST=%albuminterpret%" -T "COMPOSER=%composer%" %haslyrics%--tag-from-file=LYRICS="%lyricsfile%"%haslyrics% -T "DISCNUMBER=%cdnumber%" -T "TOTALDISCS=%totalcds%" -T "TOTALTRACKS=%numtracks%" %hascover%--picture="%coverfile%"%hascover% %source% -o %dest%

TOC of the extracted CD Track | Start | Length | Start sector | End sector
-----------
1 | 0:00.00 | 4:41.25 | 0 | 21099
2 | 4:41.25 | 6:22.00 | 21100 | 49749
3 | 11:03.25 | 3:28.57 | 49750 | 65406
4 | 14:32.07 | 6:52.50 | 65407 | 96356
5 | 21:24.57 | 4:39.12 | 96357 | 117293
6 | 26:03.69 | 3:04.12 | 117294 | 131105
7 | 29:08.06 | 5:59.62 | 131106 | 158092
8 | 35:07.68 | 7:34.12 | 158093 | 192154
9 | 42:42.05 | 3:16.50 | 192155 | 206904
10 | 45:58.55 | 2:41.25 | 206905 | 219004
11 | 48:40.05 | 1:49.62 | 219005 | 227241
12 | 50:29.67 | 4:39.37 | 227242 | 248203

Range status and errors

Selected range Filename C:\Users\Deris\Desktop\TriSey\cd3\Yes - The Many Faces Of Yes [CD3].wav Peak level 100.0 %
Extraction speed 4.7 X
Range quality 99.9 %
Test CRC A703D16D
Copy CRC A703D16D
Copy OK

No errors occurred


AccurateRip summary

Track 1 accurately ripped (confidence 1) [6360000D] (AR v2)
Track 2 accurately ripped (confidence 1) [537E2F90] (AR v2)
Track 3 accurately ripped (confidence 1) [EF586B5D] (AR v2)
Track 4 accurately ripped (confidence 1) [30CEBC91] (AR v2)
Track 5 accurately ripped (confidence 1) [4ACDA957] (AR v2)
Track 6 accurately ripped (confidence 1) [2C9D9183] (AR v2)
Track 7 accurately ripped (confidence 1) [04BCEA8A] (AR v2)
Track 8 accurately ripped (confidence 1) [6A7E1AEB] (AR v2)
Track 9 accurately ripped (confidence 1) [FB6814D3] (AR v2)
Track 10 accurately ripped (confidence 1) [0AC74971] (AR v2)
Track 11 accurately ripped (confidence 1) [CE82CBBF] (AR v2)
Track 12 accurately ripped (confidence 1) [9CD8F3C2] (AR v2)

All tracks accurately ripped

End of status report

---- CUETools DB Plugin V2.1.3

[CTDB TOCID: oD.sxMdCQ3CLMLfilvZQlspg30o-] found, Submit result: oD.sxMdCQ3CLMLfilvZQlspg30o- has been confirmed
[3c7e4f21] (1/1) Accurately ripped

==== Log checksum 81790CD75948D0C61FCDEA6B822C3E627B9D0A17D09E66B2AD4E1F11E600D8FB ====

foobar2000 1.2.9 / Dynamic Range Meter 1.1.1
log date: 2015-02-15 00:35:23

--
Analyzed: Yes / The Many Faces Of Yes [CD3]
--

DR Peak RMS Duration Track
--
DR8 0.00 dB -9.71 dB 4:41 01-Breathe
DR8 0.00 dB -9.21 dB 6:22 02-Money
DR8 0.00 dB -11.08 dB 3:29 03-Brain Damage
DR8 -0.70 dB -10.37 dB 6:53 04-Comfortably Numb
DR7 0.00 dB -9.64 dB 4:39 05-The Great Gig In The Sky
DR7 -0.30 dB -9.70 dB 3:04 06-In The Flesh?
DR7 -1.76 dB -11.06 dB 6:00 07-Los Endos
DR6 0.00 dB -8.45 dB 7:34 08-Us And Them
DR9 -0.12 dB -10.18 dB 3:17 09-On The Run
DR8 0.00 dB -10.84 dB 2:41 10-Goodbye Blue Sky
DR8 0.00 dB -9.86 dB 1:50 11-Eclipse
DR6 0.00 dB -7.90 dB 4:39 12-More Than A Feeling
--

Number of tracks: 12
Official DR value: DR8

Samplerate: 44100 Hz
Channels: 2
Bits per sample: 16
Bitrate: 949 kbps
Codec: FLAC

[CUETools log; Date: 12.02.2015 23:21:34; Version: 2.1.4]
[CTDB TOCID: oD.sxMdCQ3CLMLfilvZQlspg30o-] found.
Track | CTDB Status
1 | (3/3) Accurately ripped
2 | (3/3) Accurately ripped
3 | (3/3) Accurately ripped
4 | (3/3) Accurately ripped
5 | (3/3) Accurately ripped
6 | (3/3) Accurately ripped
7 | (3/3) Accurately ripped
8 | (3/3) Accurately ripped
9 | (3/3) Accurately ripped
10 | (3/3) Accurately ripped
11 | (3/3) Accurately ripped
12 | (3/3) Accurately ripped
[AccurateRip ID: 001a700a-00f3de5a-a40ced0c] found.
Track [ CRC | V2 ] Status
01 [e843914b|6360000d] (0+4/4) Accurately ripped
02 [19436bab|537e2f90] (0+4/4) Accurately ripped
03 [5693040d|ef586b5d] (0+4/4) Accurately ripped
04 [04a9bcea|30cebc91] (0+4/4) Accurately ripped
05 [de163ef6|4acda957] (0+4/4) Accurately ripped
06 [34a874ad|2c9d9183] (0+4/4) Accurately ripped
07 [665fc0a3|04bcea8a] (0+4/4) Accurately ripped
08 [9891f970|6a7e1aeb] (0+4/4) Accurately ripped
09 [3bac929a|fb6814d3] (0+4/4) Accurately ripped
10 [969b7bc8|0ac74971] (0+4/4) Accurately ripped
11 [7f0795e5|ce82cbbf] (0+4/4) Accurately ripped
12 [4f15e54f|9cd8f3c2] (0+4/4) Accurately ripped

Track Peak [ CRC32 ] [W/O NULL] [ LOG ]
-- 100,0 [A703D16D] [A45EC116] CRC32
01 100,0 7AFB2E7 [6C5BDCD3]
02 100,0 [2B0BBBBB] [3112956D]
03 100,0 [AB7DF67C] [A191E7FA]
04 92,2 [06242F80] [2511C0F5]
05 100,0 [08FE6FC9] [F0CBFAA8]
06 96,5 [440587BE] [33634B19]
07 81,6 [C61D0404] [3CE504F9]
08 100,0 [C49729F3] [1AF21F0F]
09 98,6 [9BCDE504] [5B22FFED]
10 100,0 [75324E81] [1AA47CD6]
11 100,0 [FE4D1C9E] [34022843]
12 100,0 A066524 [DE90622E]

http://i67.fastpic.ru/big/2015/0217/f5/83333924b7d8bb4041f264e3cff697f5.jpg

DOWNLOAD LINKS:
Buy Premium To Support Me & Get Resumable Support & Max Speed


Links are Interchangeable - No Password - Single Extraction

The Many Faces Of Yes: A Journey Through The Inner World Of Yes (2014) Fast Download


Ad2

 
 
 
Dear visitor, you went to the site as an unregistered user. We encourage you to register or enter the site under your name.
 
   
 
 (Votes #: 0)