2013Zone For Latest Downloads

 
     
 
Legal Downloads » Music » The Dollyrots - Eat My Heart Out (Plus B-Sides) (2004) [2009 Re-Release]
Menu
Home Applications
Games Movies
Music TV Shows
Torrents Graphics

Sitemap

RSS
 
Advanced Search
Last News
Site Info
Top Contributors:
  1    supper88 32766
  2    admin 32693
  3    Whisky 10080
  4    Shark_ 8911
  5    creativelivenew 8706
  6    whathesupa 2799
  7    candymypost 840
  8    hvnteam 629
  9    vuong87 3


Articles:
  This Hour: 0
  Today: 0
  This Month: 0
  All Time: 515561


Torrents:
  Today: 0
  Yesterday: 0
  All Time: 156684


Membership:
  Registered Today :0
  This Hour:0
  This Month:0
  Total:14
  Banned:1

{online}
{inform_torrent}
Friend:
We Recomend
Trend
Trend
Ad1

Search In Site

Music : The Dollyrots - Eat My Heart Out (Plus B-Sides) (2004) [2009 Re-Release]
 
http://i63.fastpic.ru/big/2015/0217/dd/10b23f955390d92e9e09971f2f0d1edd.jpg

The Dollyrots - Eat My Heart Out (Plus B-Sides) (2004) [2009 Re-Release]
EAC Secure Rip | FLAC (Image + Cue + Log) - 362 MB | Complete Scans (Jpeg 600 dpi) - 88 MB | MP3 (CBR320 Kbps) - 120 MB
Alternative Indie Rock, Power Pop, Pop Punk | Arrested Youth Records | AY-006 | 45:32 minutes | Hosted on: NirtoFlare, Filepost &

Eat My Heart Out is the debut album by pop punk band The Dollyrots. This is the 2009 re-release version with three bonus tracks.
"There's nothing new under the sun, especially in the world of rock & roll, and thank heaven for that. The Dollyrots are certainly nothing new -- no genre-transgressing experiments, no incongruous fusions, no mind-expanding instrumental solos or side-long suites. Just 13 tight, compact, sweet, and crunchy bursts of punky power pop. Imagine the Ramones with a girl singer and more than three chords (but not much more), or maybe Belly if Tanya Donelly didn't have that weird death thing going on. Eat My Heart Out starts off with a bang, with a brilliantly ambivalent kiss-off song titled "Kick Me to the Curb," then proceeds from strength to strength: "Jackie Chan" is just what you'd expect, a charmingly trashy celebration of kung fu movies in the guise of a breakup song; "Goodnight Tonight" couches sweetly adolescent love lyrics in grungy guitar noise over a 6/8 beat; the lyrics to "Dance With Me" read like they're probably supposed to be suggestive, but they just come across as innocently longing. Then they end the whole thing with a fantastic aggro arrangement of the Ronnie Spector classic "Be My Baby." Singer Kelly Ogden is what really makes this band work -- her voice is clear and sharp, and her delivery is by turns sweet and snotty. Reviewed by Rick Anderson of allmusic.com"


Exact Audio Copy V1.0 beta 2 from 29. April 2011

EAC extraction logfile from 5. January 2015, 15:15

The Dollyrots / Eat My Heart Out (Plus B-Sides)

Used drive : HL-DT-STBD-RE BH14NS40 Adapter: 0 ID: 2

Read mode : Secure
Utilize accurate stream : Yes
Defeat audio cache : Yes
Make use of C2 pointers : No

Read offset correction : 6
Overread into Lead-In and Lead-Out : No
Fill up missing offset samples with silence : Yes
Delete leading and trailing silent blocks : No
Null samples used in CRC calculations : Yes
Used interface : Native Win32 interface for Win NT & 2000

Used output format : User Defined Encoder
Selected bitrate : 1024 kBit/s
Quality : High
Add ID3 tag : No
Command line compressor : C:\Program Files (x86)\Exact Audio Copy\Flac\flac.exe
Additional command line options : -V -5 -T "artist=%albumartist%" -T "title=%title%" -T "album=%albumtitle%" -T "date=%year%" -T "genre=%genre%" -T "tracknumber=%tracknr%" %source%

TOC of the extracted CD Track | Start | Length | Start sector | End sector
-----------
1 | 0:00.00 | 2:57.32 | 0 | 13306
2 | 2:57.32 | 3:30.02 | 13307 | 29058
3 | 6:27.34 | 1:51.70 | 29059 | 37453
4 | 8:19.29 | 3:38.56 | 37454 | 53859
5 | 11:58.10 | 2:00.60 | 53860 | 62919
6 | 13:58.70 | 3:00.07 | 62920 | 76426
7 | 16:59.02 | 3:22.46 | 76427 | 91622
8 | 20:21.48 | 3:10.27 | 91623 | 105899
9 | 23:32.00 | 3:07.46 | 105900 | 119970
10 | 26:39.46 | 3:22.19 | 119971 | 135139
11 | 30:01.65 | 1:47.23 | 135140 | 143187
12 | 31:49.13 | 3:11.02 | 143188 | 157514
13 | 35:00.15 | 2:08.64 | 157515 | 167178
14 | 37:09.04 | 2:56.68 | 167179 | 180446
15 | 40:05.72 | 2:43.43 | 180447 | 192714
16 | 42:49.40 | 2:41.31 | 192715 | 204820

Range status and errors

Selected range Filename C:\EAC\The Dollyrots - (2004) Eat My Heart Out (Plus B-Sides) [2009 Re-Release]\The Dollyrots - Eat My Heart Out (Plus B-Sides).wav Peak level 97.2 %
Extraction speed 6.0 X
Range quality 100.0 %
Test CRC 3F1A0105
Copy CRC 3F1A0105
Copy OK

No errors occurred


AccurateRip summary

Track 1 not present in database
Track 2 not present in database
Track 3 not present in database
Track 4 not present in database
Track 5 not present in database
Track 6 not present in database
Track 7 not present in database
Track 8 not present in database
Track 9 not present in database
Track 10 not present in database
Track 11 not present in database
Track 12 not present in database
Track 13 not present in database
Track 14 not present in database
Track 15 not present in database
Track 16 not present in database

None of the tracks are present in the AccurateRip database

End of status report

==== Log checksum B3FB1454D7C0A279845984517CA50E872BE081A042106C1066CB9E81B3F19266 ====

Track Listing:

01. Kick Me To The Curb
02. Love You Most
03. Jackie Chan (Luis Cabezas, Josh Harrold, Kelly Ogden)
04. Wreckage
05. Feed Me, Pet Me
06. Penny
07. Goodnight Tonight
08. Dance With Me
09. New College
10. Promised Call
11. Skinny
12. Nobody Else
13. Be My Baby (Jeff Barry, Ellie Greenwich, Phil Spector)
14. Alpha Mansion (B-Side)
15. Little Black Book (B-Side)
16. This Crush (B-Side)

All songs written and composed by Kelly Ogden and Luis Cabezas except where noted.

The Dollyrots:

Kelly Ogden - bass, vocals
Luis Cabezas - guitar, background vocals
Josh Valenti - drums

Album Released: September 19, 2004
Re-release Released: July 24, 2009 (On-Demand CD-R)

foobar2000 1.3.2 / Dynamic Range Meter 1.1.0
log date: 2015-01-10 00:56:00

--
Analyzed: / Eat My Heart Out (Plus B-Sides)
--

DR Peak RMS Duration Track
--
DR6 -0.31 dB -7.22 dB 2:57 01-Kick Me To The Curb
DR5 -0.31 dB -6.41 dB 3:30 02-Love You Most
DR6 -0.31 dB -6.97 dB 1:52 03-Jackie Chan
DR6 -0.31 dB -6.85 dB 3:39 04-Wreckage
DR6 -0.31 dB -7.06 dB 2:01 05-Feed Me, Pet Me
DR5 -0.31 dB -6.36 dB 3:00 06-Penny
DR5 -0.31 dB -6.96 dB 3:23 07-Goodnight Tonight
DR6 -0.24 dB -6.75 dB 3:10 08-Dance With Me
DR6 -0.31 dB -7.01 dB 3:08 09-New College
DR6 -0.31 dB -6.99 dB 3:22 10-Promised Call
DR7 -0.31 dB -8.05 dB 1:47 11-Skinny
DR5 -0.31 dB -6.42 dB 3:11 12-Nobody Else
DR6 -0.31 dB -7.07 dB 2:09 13-Be My Baby
DR6 -0.31 dB -6.80 dB 2:57 14-Alpha Mansion
DR6 -0.31 dB -7.20 dB 2:44 15-Little Black Book
DR6 -0.31 dB -7.41 dB 2:41 16-This Crush
--

Number of tracks: 16
Official DR value: DR6

Samplerate: 44100 Hz
Channels: 2
Bits per sample: 16
Bitrate: 1058 kbps
Codec: FLAC
DOWNLOAD LINKS:
Buy Premium To Support Me & Get Resumable Support & Max Speed


Links are Interchangeable - No Password - Single Extraction

The Dollyrots - Eat My Heart Out (Plus B-Sides) (2004) [2009 Re-Release] Fast Download


Ad2

 
 
 
Dear visitor, you went to the site as an unregistered user. We encourage you to register or enter the site under your name.
 
   
 
 (Votes #: 0)