2013Zone For Latest Downloads

 
     
 
Legal Downloads » TV Shows » National Geographic - Underworld, Inc. Series 1 (2015)
Menu
Home Applications
Games Movies
Music TV Shows
Torrents Graphics

Sitemap

RSS
 
Advanced Search
Last News
Site Info
Top Contributors:
  1    supper88 32766
  2    admin 32671
  3    Whisky 10080
  4    Shark_ 8911
  5    creativelivenew 8706
  6    whathesupa 2799
  7    candymypost 840
  8    hvnteam 629
  9    vuong87 3


Articles:
  This Hour: 0
  Today: 20
  This Month: 58
  All Time: 515616


Torrents:
  Today: 0
  Yesterday: 20
  All Time: 156702


Membership:
  Registered Today :0
  This Hour:0
  This Month:0
  Total:14
  Banned:1

{online}
{inform_torrent}
Friend:
We Recomend
Trend
Trend
Ad1

Search In Site

TV Shows : National Geographic - Underworld, Inc. Series 1 (2015)
 
http://i67.fastpic.ru/big/2015/0217/2c/ecf9721c4eb039053469cf6d03129c2c.jpg

National Geographic - Underworld, Inc. Series 1 (2015)
HDTV | 1280x720 | MKV/x264 @ 3324 Kbps | 6x43mn | Audio: English AC3 384 kbps, 6 channels | Subs: None | 6x1.16 GB
Genre: Documentary

From the illegal weapons to the underground sex trade, nothing is off limits and everything is for sale in illegal, underground markets. It's an industry that is brutal, exploitative, and corrupt where what you buy isn't always what it seems. Despite efforts to crack down on these illegal trades, more than $625 billion makes its way into the US economy each year for illegal trade goods. Unprecedented inside access brings light to the inner workings of the last bastion of 'free' enterprise, charting a global path to the underworld economy. Workers, suppliers, sellers, customers - and the law enforcement trying to keep it in check - share their experience of a hidden world that touches us all.
More info

Part 1: Ghost Guns
To get away with a crime, criminals look for completely untraceable guns. Enter the "ghost" gun: an exact replica with a fake serial number and no ballistic record - a gun that is potentially invisible to law enforcement.

Part 2: Sex for Sale
The illegal, multibillion-dollar global sex trade includes brothels, massage parlors and online escort agencies and is one of the oldest professions. Take a look inside this illegal trade where pimps treat women as commodities - bought and sold, used and abused, then discarded.

Part 3: Human Cargo
Mexican cartels dominate an extremely lucrative industry exporting undocumented migrants and squeezing them for cash. Thousands of Central Americans head north to the US border, lured by hopes for a brighter future, but people smugglers, who are often linked to cartels, make it difficult to cross without their supervision, and for a price.

Part 4: Illegal Gambling
Millions of Americans love to gamble, but some forms of gambling are restricted or illegal, pushing them underground, where the rules are very different. Here, if you want to play you have to pay.

Part 5: Knock Offs
Anything and everything can be faked: watches, purses, shoes, electronics, and smartphones. Go underground to see the breathtaking enterprise and expertise of counterfeiting - an economy that turns over an estimated $500 billion a year.

Part 6: Fake Pharma
Go inside the underground economy of knockoff pharma, where the demand for fake drugs continues to grow and buyers can find an abundance on the Internet, in the pharmacies and on the streets.

General
UniqueID : 236324845377848285362487531841892757302 (0xB1CA8277373C187EAD83B568503DAF36)
Complete name : C:\Tor\_up_jdown\underworld.inc.0101.720p-yestv.mkv
Format : Matroska
File size : 1.16 GiB
Duration : 43mn 58s
Overall bit rate : 3 783 Kbps
Encoded date : UTC 2015-01-08 11:17:00
Writing application : mkvmerge v7.0.0 ('Where We Going') 32bit built on Jun 9 2014 15:08:34
Writing library : libebml v1.3.0 + libmatroska v1.4.1

Video
ID : 1
Format : AVC
Format/Info : Advanced Video Codec
Format profile : [email protected]
Format settings, CABAC : Yes
Format settings, ReFrames : 5 frames
Codec ID : V_MPEG4/ISO/AVC
Duration : 43mn 58s
Bit rate : 3 324 Kbps
Width : 1 280 pixels
Height : 720 pixels
Display aspect ratio : 16:9
Frame rate : 29.970 fps
Color space : YUV
Chroma subsampling : 4:2:0
Bit depth : 8 bits
Scan type : Progressive
Bits/(Pixel*Frame) : 0.120
Stream size : 1.02 GiB (88%)
Writing library : x264 core 144 r2525 40bb568
Encoding settings : cabac=1 / ref=5 / deblock=1:0:0 / analyse=0x3:0x113 / me=umh / subme=8 / psy=1 / psy_rd=1.00:0.00 / mixed_ref=1 / me_range=16 / chroma_me=1 / trellis=1 / 8x8dct=1 / cqm=0 / deadzone=21,11 / fast_pskip=1 / chroma_qp_offset=-2 / threads=9 / lookahead_threads=1 / sliced_threads=0 / nr=0 / decimate=1 / interlaced=0 / bluray_compat=0 / constrained_intra=0 / bframes=3 / b_pyramid=2 / b_adapt=2 / b_bias=0 / direct=3 / weightb=1 / open_gop=0 / weightp=2 / keyint=300 / keyint_min=30 / scenecut=40 / intra_refresh=0 / rc_lookahead=50 / rc=crf / mbtree=1 / crf=21.0 / qcomp=0.60 / qpmin=0 / qpmax=69 / qpstep=4 / ip_ratio=1.40 / aq=1:1.00
Matrix coefficients : BT.709-5, BT.1361, IEC 61966-2-4 709, SMPTE RP177

Audio
ID : 2
Format : AC-3
Format/Info : Audio Coding 3
Mode extension : CM (complete main)
Codec ID : A_AC3
Duration : 43mn 58s
Bit rate mode : Constant
Bit rate : 384 Kbps
Channel(s) : 6 channels
Channel positions : Front: L C R, Side: L R, LFE
Sampling rate : 48.0 KHz
Bit depth : 16 bits
Compression mode : Lossy
Stream size : 121 MiB (10%)
Language : English

http://i59.fastpic.ru/big/2015/0217/a1/2e63d6b3e2a3f0d5331c43ae5d4c41a1.jpg


DOWNLOAD LINKS:
Buy Premium To Support Me & Get Resumable Support & Max Speed

Uploaded.net:
c6ysj.under01.part1.rar
c6ysj.under01.part2.rar
c6ysj.under01.part3.rar
c6ysj.under02.part1.rar
c6ysj.under02.part2.rar
c6ysj.under02.part3.rar
c6ysj.under03.part1.rar
c6ysj.under03.part2.rar
c6ysj.under03.part3.rar
c6ysj.under04.part1.rar
c6ysj.under04.part2.rar
c6ysj.under04.part3.rar
c6ysj.under05.part1.rar
c6ysj.under05.part2.rar
c6ysj.under05.part3.rar
c6ysj.under06.part1.rar
c6ysj.under06.part2.rar
c6ysj.under06.part3.rar

Rapidgator.net:
c6ysj.under01.part1.rar.html
c6ysj.under01.part2.rar.html
c6ysj.under01.part3.rar.html
c6ysj.under02.part1.rar.html
c6ysj.under02.part2.rar.html
c6ysj.under02.part3.rar.html
c6ysj.under03.part1.rar.html
c6ysj.under03.part2.rar.html
c6ysj.under03.part3.rar.html
c6ysj.under04.part1.rar.html
c6ysj.under04.part2.rar.html
c6ysj.under04.part3.rar.html
c6ysj.under05.part1.rar.html
c6ysj.under05.part2.rar.html
c6ysj.under05.part3.rar.html
c6ysj.under06.part1.rar.html
c6ysj.under06.part2.rar.html
c6ysj.under06.part3.rar.html

Uploadable.ch:
c6ysj.under01.part1.rar
c6ysj.under01.part2.rar
c6ysj.under01.part3.rar
c6ysj.under02.part1.rar
c6ysj.under02.part2.rar
c6ysj.under02.part3.rar
c6ysj.under03.part1.rar
c6ysj.under03.part2.rar
c6ysj.under03.part3.rar
c6ysj.under04.part1.rar
c6ysj.under04.part2.rar
c6ysj.under04.part3.rar
c6ysj.under05.part1.rar
c6ysj.under05.part2.rar
c6ysj.under05.part3.rar
c6ysj.under06.part1.rar
c6ysj.under06.part2.rar
c6ysj.under06.part3.rar

Turbobit.net:
c6ysj.under01.part1.rar.html
c6ysj.under01.part2.rar.html
c6ysj.under01.part3.rar.html
c6ysj.under02.part1.rar.html
c6ysj.under02.part2.rar.html
c6ysj.under02.part3.rar.html
c6ysj.under03.part1.rar.html
c6ysj.under03.part2.rar.html
c6ysj.under03.part3.rar.html
c6ysj.under04.part1.rar.html
c6ysj.under04.part2.rar.html
c6ysj.under04.part3.rar.html
c6ysj.under05.part1.rar.html
c6ysj.under05.part2.rar.html
c6ysj.under05.part3.rar.html
c6ysj.under06.part1.rar.html
c6ysj.under06.part2.rar.html
c6ysj.under06.part3.rar.html

Links are Interchangeable - No Password - Single Extraction

National Geographic - Underworld, Inc. Series 1 (2015) Fast Download


Ad2

 
 
 
Dear visitor, you went to the site as an unregistered user. We encourage you to register or enter the site under your name.
 
   
 
 (Votes #: 0)