2013Zone For Latest Downloads

 
     
 
Legal Downloads » Music » VA - The Many Faces of Black Sabbath: a Journey Through the Inner World of Black Sabbath (2014)
Menu
Home Applications
Games Movies
Music TV Shows
Torrents Graphics

Sitemap

RSS
 
Advanced Search
Last News
Site Info
Top Contributors:
  1    supper88 32766
  2    admin 32693
  3    Whisky 10080
  4    Shark_ 8911
  5    creativelivenew 8706
  6    whathesupa 2799
  7    candymypost 840
  8    hvnteam 629
  9    vuong87 3


Articles:
  This Hour: 0
  Today: 0
  This Month: 0
  All Time: 515561


Torrents:
  Today: 0
  Yesterday: 0
  All Time: 156684


Membership:
  Registered Today :0
  This Hour:0
  This Month:0
  Total:14
  Banned:1

{online}
{inform_torrent}
Friend:
We Recomend
Trend
Trend
Ad1

Search In Site

Music : VA - The Many Faces of Black Sabbath: a Journey Through the Inner World of Black Sabbath (2014)
 
http://i65.fastpic.ru/big/2015/0217/f0/9c9b608052e290b9c872f22101bd87f0.jpg

VA - The Many Faces of Black Sabbath: a Journey Through the Inner World of Black Sabbath (2014)
Metal | 3cd | EAC Rip | Flac + Cue + Log | covers
Music Brokers MBB7186 | rel: 2014 | 1525Mb

Black Sabbath is - along with Led Zeppelin and Deep Purple - the most important British hard rock band of all time. With its dark, mystical and obsessive sound, Black Sabbath built a unique brand that has influenced countless groups since its inception in the late 60s until today. As usual, in our series The Many Faces, we will take you into the fantastic and great world of Black Sabbath. We will revisit forgotten collaborations, its best songs and the artists (and even music styles) that the band have influenced.
We started with Disc 1, entitled 'The Players (and more)' that features musicians who have been part the band. To begin with, who else than Tony Iommi, the founding guitarist and the only member who has been in all the band's formations. Tony is synonymous with Black Sabbath. We also can't forget to mention that this first disc contains potent versions of three classic Sabbath's songs ('Paranoid', 'Children Of The Grave' and 'Hole In The Sky') by rock stars such as Vince Neil (Mötley Crüe), George Lynch (Dokken) and Californians Racer X and Agent Steel.
Disc 2 is dedicated to the band's greatest songs with versions from countries like the United States, Germany and Argentina. This is just a simple of passion that Black Sabbath generates around the world. And, as a special treat, we allow ourselves the freedom to include three classic Ozzy Osbourne's tracks from his solo career ('Mr. Crowley', 'Crazy Train' and 'Bark At The Moon'). These, in versions featuring guitar god Yngwie Malmsteen, Dee Snider (from Twisted Sister), Jason Bonham (son of John Bonham from Led Zeppelin) and core fans Forever Say Die.
Finally, Disc 3 - titled 'The Legacy' - features 14 tracks of stoner rock, the underground music genre that was born from the sound of the original Black Sabbath, especially the period between his debut Black Sabbath in 1970 thru Sabotage in 1975. So, bands like Freedom Hawk, Sasquatch or Isaak (among many others) bring back all the mystique and magic that we all love in hard rock into the XXI century.~bravewords

Track listing
cd1:
01. Bobby Harrison(feat. Tony Iommi) / King Of The Night (7:07)
02. Ronnie James Dio / Welcome To My Nightmare (5:11)
03. Due'le quartz / Mainline Riders (3:34)
04. Glenn Hughes / Only Women Bleed (5:42)
05. Bedlam(feat. Cozy Powell) / I Believe In You (4:01)
06. Axel Rudi Pell(feat. Bob Rondinelli) / Tower Of Lies (4:26)
07. Ian Gillan / Finally The Finale (4:02)
08. Quartz(Prod. By Tony Iommi) / Devil's Brew (3:38)
09. Dave Mustaine(Feat. Eric Singer) / School's Out (3:59)
10. Rick Wakeman / Paint It Black (5:41)
11. The Move(Feat. Bev Bevan) / Flowers In The Rain (2:25)
12. Vince Neil(Mötley Crue) & George Lynch(Dokken) / Paranoid (3:34)
13. Racer X / Children Of The Grave (5:10)
14. Agent Steel / Hole In The Sky (3:58)
~ (62:29)

cd2:
01. Iced Earth - Black Sabbath (5:31)
02. Forever Say Die - Sabbath Bloody Sabbath (5:42)
03. Dofka - N.I.B. (5:01)
04. Los Natas - Paranoid (4:24)
05. Nativo - War Pigs (7:59)
06. Horcas & Andrés Giménez - Children Of The Grave (4:31)
07. Primal Fear - Die Young (4:04)
08. Steel Prophet - Neon Nights (3:56)
09. Jag Panzer - Children Of The Sea (5:16)
10. Icarus Witch - Falling Of The Edge Of The World (5:27)
11. Order Of Nine - Disturbing The Priest (5:05)
12. Yngwie Malmsteen - Mr. Crowely (4:54)
13. Dee Snider & Jason Bonham - Crazy Train (5:14)
14. Forever Say Die - Bark At The Moon (4:17)
~ (71:19)

cd3:
01. Freedom Hawk - Thunderfoot (4:10)
02. Sasquatch - DragonFly (2:58)
03. Isaak - Rest Of The Sun (3:37)
04. Greenleaf - Highway Officer (4:11)
05. Backwoods Payback - You Know How This Works (3:27)
06. The SockS - Gypsy Lady (4:58)
07. Wo Fat - The Conjuring (9:52)
08. Gozu - Jan-Michael Vincent (3:57)
09. Brain Police - Rooster Booster (4:26)
10. Lo Pan - Bleending Out (3:46)
11. Fudo Myo - Closer To The Sun (4:13)
12. Nightstalker - Keystone (3:42)
13. Mother Of God - To Live (3:54)
14. Southern Whiskey Rebellion - Through Ashes And Tears (7:46)
~ (65:00)

Exact Audio Copy V1.0 beta 3 from 29. August 2011

EAC extraction logfile from 28. January 2015, 12:33

Black Sabbath / The Many Faces Of Black Sabbath CD 1

Used drive : PIONEER BD-RW BDR-TD03 Adapter: 0 ID: 1

Read mode : Secure
Utilize accurate stream : Yes
Defeat audio cache : Yes
Make use of C2 pointers : No

Read offset correction : 667
Overread into Lead-In and Lead-Out : No
Fill up missing offset samples with silence : Yes
Delete leading and trailing silent blocks : No
Null samples used in CRC calculations : Yes
Used interface : Native Win32 interface for Win NT & 2000

Used output format : User Defined Encoder
Selected bitrate : 768 kBit/s
Quality : High
Add ID3 tag : No
Command line compressor : C:\Program Files (x86)\Exact Audio Copy\FLAC\FLAC.EXE
Additional command line options : -6 -V -T "ARTIST=%artist%" -T "TITLE=%title%" -T "ALBUM=%albumtitle%" -T "DATE=%year%" -T "TRACKNUMBER=%tracknr%" -T "GENRE=%genre%" -T "COMMENT=%comment%" -T "BAND=%albuminterpret%" -T "ALBUMARTIST=%albuminterpret%" -T "COMPOSER=%composer%" %haslyrics%--tag-from-file=LYRICS="%lyricsfile%"%haslyrics% -T "DISCNUMBER=%cdnumber%" -T "TOTALDISCS=%totalcds%" -T "TOTALTRACKS=%numtracks%" %hascover%--picture="%coverfile%"%hascover% %source% -o %dest%

TOC of the extracted CD Track | Start | Length | Start sector | End sector
-----------
1 | 0:00.00 | 7:07.37 | 0 | 32061
2 | 7:07.37 | 5:11.00 | 32062 | 55386
3 | 12:18.37 | 3:33.46 | 55387 | 71407
4 | 15:52.08 | 5:41.65 | 71408 | 97047
5 | 21:33.73 | 4:01.09 | 97048 | 115131
6 | 25:35.07 | 4:25.46 | 115132 | 135052
7 | 30:00.53 | 4:01.65 | 135053 | 153192
8 | 34:02.43 | 3:38.28 | 153193 | 169570
9 | 37:40.71 | 3:59.09 | 169571 | 187504
10 | 41:40.05 | 5:41.00 | 187505 | 213079
11 | 47:21.05 | 2:24.46 | 213080 | 223925
12 | 49:45.51 | 3:34.28 | 223926 | 240003
13 | 53:20.04 | 5:10.35 | 240004 | 263288
14 | 58:30.39 | 3:58.30 | 263289 | 281168

Range status and errors

Selected range Filename C:\Users\Deris\Desktop\TriBlaSa\cd1\Black Sabbath - The Many Faces Of Black Sabbath CD 1.wav Peak level 100.0 %
Extraction speed 4.7 X
Range quality 99.9 %
Test CRC 6F264C3B
Copy CRC 6F264C3B
Copy OK

No errors occurred


AccurateRip summary

Track 1 not present in database
Track 2 not present in database
Track 3 not present in database
Track 4 not present in database
Track 5 not present in database
Track 6 not present in database
Track 7 not present in database
Track 8 not present in database
Track 9 not present in database
Track 10 not present in database
Track 11 not present in database
Track 12 not present in database
Track 13 not present in database
Track 14 not present in database

None of the tracks are present in the AccurateRip database

End of status report

---- CUETools DB Plugin V2.1.3

[CTDB TOCID: bfYzOM.qiHw6sHJdY8dPhJ4i.Uk-] found, Submit result: bfYzOM.qiHw6sHJdY8dPhJ4i.Uk- has been confirmed
[6ad08afe] (1/4) Differs in 26 samples @59:04:02
[e831a559] (3/4) Accurately ripped
You can use CUETools to repair this rip.

==== Log checksum 67149BC97DF31ECEC4E38B8AF67C7B061FC4603C8EAB55B1E6998566ADCC55DA ====

-

Exact Audio Copy V1.0 beta 3 from 29. August 2011

EAC extraction logfile from 28. January 2015, 23:36

Various Artists / The Many Faces Of Black Sabbath CD 2

Used drive : PIONEER BD-RW BDR-TD03 Adapter: 0 ID: 1

Read mode : Secure
Utilize accurate stream : Yes
Defeat audio cache : Yes
Make use of C2 pointers : No

Read offset correction : 667
Overread into Lead-In and Lead-Out : No
Fill up missing offset samples with silence : Yes
Delete leading and trailing silent blocks : No
Null samples used in CRC calculations : Yes
Used interface : Native Win32 interface for Win NT & 2000

Used output format : User Defined Encoder
Selected bitrate : 768 kBit/s
Quality : High
Add ID3 tag : No
Command line compressor : C:\Program Files (x86)\Exact Audio Copy\FLAC\FLAC.EXE
Additional command line options : -6 -V -T "ARTIST=%artist%" -T "TITLE=%title%" -T "ALBUM=%albumtitle%" -T "DATE=%year%" -T "TRACKNUMBER=%tracknr%" -T "GENRE=%genre%" -T "COMMENT=%comment%" -T "BAND=%albuminterpret%" -T "ALBUMARTIST=%albuminterpret%" -T "COMPOSER=%composer%" %haslyrics%--tag-from-file=LYRICS="%lyricsfile%"%haslyrics% -T "DISCNUMBER=%cdnumber%" -T "TOTALDISCS=%totalcds%" -T "TOTALTRACKS=%numtracks%" %hascover%--picture="%coverfile%"%hascover% %source% -o %dest%

TOC of the extracted CD Track | Start | Length | Start sector | End sector
-----------
1 | 0:00.00 | 5:30.67 | 0 | 24816
2 | 5:30.67 | 5:42.07 | 24817 | 50473
3 | 11:12.74 | 5:00.52 | 50474 | 73025
4 | 16:13.51 | 4:23.45 | 73026 | 92795
5 | 20:37.21 | 7:58.45 | 92796 | 128690
6 | 28:35.66 | 4:30.45 | 128691 | 148985
7 | 33:06.36 | 4:03.45 | 148986 | 167255
8 | 37:10.06 | 3:55.45 | 167256 | 184925
9 | 41:05.51 | 5:16.30 | 184926 | 208655
10 | 46:22.06 | 5:26.60 | 208656 | 233165
11 | 51:48.66 | 5:05.37 | 233166 | 256077
12 | 56:54.28 | 4:53.60 | 256078 | 278112
13 | 61:48.13 | 5:13.52 | 278113 | 301639
14 | 67:01.65 | 4:17.37 | 301640 | 320951

Range status and errors

Selected range Filename C:\Users\Deris\Desktop\TriBlaSa\cd2\Various Artists - The Many Faces Of Black Sabbath CD 2.wav Peak level 100.0 %
Extraction speed 5.1 X
Range quality 100.0 %
Test CRC 553B281E
Copy CRC 553B281E
Copy OK

No errors occurred


AccurateRip summary

Track 1 not present in database
Track 2 not present in database
Track 3 not present in database
Track 4 not present in database
Track 5 not present in database
Track 6 not present in database
Track 7 not present in database
Track 8 not present in database
Track 9 not present in database
Track 10 not present in database
Track 11 not present in database
Track 12 not present in database
Track 13 not present in database
Track 14 not present in database

None of the tracks are present in the AccurateRip database

End of status report

---- CUETools DB Plugin V2.1.3

[CTDB TOCID: eKLsC7K0L63feo5.rrZmvovRD_0-] found, Submit result: eKLsC7K0L63feo5.rrZmvovRD_0- has been confirmed
[a8d2fae3] (4/4) Accurately ripped

==== Log checksum 8319A1D03204C964D18ABF8A0EBCBD8B8FDE41B5D42B4C5C38A560D178334E26 ====
------------
Exact Audio Copy V1.0 beta 3 from 29. August 2011

EAC extraction logfile from 29. January 2015, 13:48

Various Artists / The Many Faces Of Black Sabbath CD 3

Used drive : PIONEER BD-RW BDR-TD03 Adapter: 0 ID: 1

Read mode : Secure
Utilize accurate stream : Yes
Defeat audio cache : Yes
Make use of C2 pointers : No

Read offset correction : 667
Overread into Lead-In and Lead-Out : No
Fill up missing offset samples with silence : Yes
Delete leading and trailing silent blocks : No
Null samples used in CRC calculations : Yes
Used interface : Native Win32 interface for Win NT & 2000

Used output format : User Defined Encoder
Selected bitrate : 768 kBit/s
Quality : High
Add ID3 tag : No
Command line compressor : C:\Program Files (x86)\Exact Audio Copy\FLAC\FLAC.EXE
Additional command line options : -6 -V -T "ARTIST=%artist%" -T "TITLE=%title%" -T "ALBUM=%albumtitle%" -T "DATE=%year%" -T "TRACKNUMBER=%tracknr%" -T "GENRE=%genre%" -T "COMMENT=%comment%" -T "BAND=%albuminterpret%" -T "ALBUMARTIST=%albuminterpret%" -T "COMPOSER=%composer%" %haslyrics%--tag-from-file=LYRICS="%lyricsfile%"%haslyrics% -T "DISCNUMBER=%cdnumber%" -T "TOTALDISCS=%totalcds%" -T "TOTALTRACKS=%numtracks%" %hascover%--picture="%coverfile%"%hascover% %source% -o %dest%

TOC of the extracted CD Track | Start | Length | Start sector | End sector
-----------
1 | 0:00.00 | 4:10.37 | 0 | 18786
2 | 4:10.37 | 2:57.46 | 18787 | 32107
3 | 7:08.08 | 3:36.65 | 32108 | 48372
4 | 10:44.73 | 4:11.18 | 48373 | 67215
5 | 14:56.16 | 3:26.65 | 67216 | 82730
6 | 18:23.06 | 4:58.28 | 82731 | 105108
7 | 23:21.34 | 9:52.00 | 105109 | 149508
8 | 33:13.34 | 3:57.37 | 149509 | 167320
9 | 37:10.71 | 4:25.65 | 167321 | 187260
10 | 41:36.61 | 3:46.18 | 187261 | 204228
11 | 45:23.04 | 4:13.28 | 204229 | 223231
12 | 49:36.32 | 3:42.09 | 223232 | 239890
13 | 53:18.41 | 3:54.37 | 239891 | 257477
14 | 57:13.03 | 7:46.37 | 257478 | 292464

Range status and errors

Selected range Filename C:\Users\Deris\Desktop\TriBlaSa\cd3\Various Artists - The Many Faces Of Black Sabbath CD 3.wav Peak level 100.0 %
Extraction speed 4.9 X
Range quality 100.0 %
Test CRC 29327B04
Copy CRC 29327B04
Copy OK

No errors occurred


AccurateRip summary

Track 1 not present in database
Track 2 not present in database
Track 3 not present in database
Track 4 not present in database
Track 5 not present in database
Track 6 not present in database
Track 7 not present in database
Track 8 not present in database
Track 9 not present in database
Track 10 not present in database
Track 11 not present in database
Track 12 not present in database
Track 13 not present in database
Track 14 not present in database

None of the tracks are present in the AccurateRip database

End of status report

---- CUETools DB Plugin V2.1.3

[CTDB TOCID: 3u6sC.RNKxD99Elr7nRs5a.24vs-] found, Submit result: 3u6sC.RNKxD99Elr7nRs5a.24vs- has been confirmed
[78049453] (4/4) Accurately ripped

==== Log checksum EC34203B2A2FB06FC758A7B01C7B0080E64B57DABF322BC888EB618BD1A2DB3D ====

[CUETools log; Date: 2015.02.15. 8:51:01; Version: 2.1.4]
[CTDB TOCID: bfYzOM.qiHw6sHJdY8dPhJ4i.Uk-] found.
Track | CTDB Status
1 | (5/5) Accurately ripped
2 | (5/5) Accurately ripped
3 | (5/5) Accurately ripped
4 | (5/5) Accurately ripped
5 | (5/5) Accurately ripped
6 | (5/5) Accurately ripped
7 | (5/5) Accurately ripped
8 | (5/5) Accurately ripped
9 | (5/5) Accurately ripped
10 | (5/5) Accurately ripped
11 | (5/5) Accurately ripped
12 | (5/5) Accurately ripped
13 | (5/5) Accurately ripped
14 | (4/5) Accurately ripped, or (1/5) differs in 26 samples @00:33:38
[AccurateRip ID: 00222583-0163d097-b60ea40e] disk not present in database.

Track Peak [ CRC32 ] [W/O NULL] [ LOG ]
-- 100,0 [6F264C3B] [FAE8431D] CRC32
01 100,0 [7C015B41] [2DE62693]
02 100,0 [968553CF] [E8E0417C]
03 100,0 [525DBF1F] [F02EE5AD]
04 100,0 [F31A5AD7] [E336A7D0]
05 100,0 [0FE4B476] [8C1B39EE]
06 100,0 [D96B77F6] [0D79C3D0]
07 100,0 [049ED509] [C5C81CB2]
08 100,0 [AD47E3AA] [7A801D25]
09 100,0 [14A7FDA6] [A999B597]
10 100,0 [A23576EA] [D191D6CA]
11 100,0 C6ED23C [0E9B96FE]
12 100,0 [74F352B9] 120F7FB
13 100,0 [D2235FB7] [7F2440FF]
14 100,0 [782C838B] [DEAE3C40]

--------------
[CUETools log; Date: 2015.02.15. 8:51:20; Version: 2.1.4]
[CTDB TOCID: eKLsC7K0L63feo5.rrZmvovRD_0-] found.
Track | CTDB Status
1 | (5/5) Accurately ripped
2 | (5/5) Accurately ripped
3 | (5/5) Accurately ripped
4 | (5/5) Accurately ripped
5 | (5/5) Accurately ripped
6 | (5/5) Accurately ripped
7 | (5/5) Accurately ripped
8 | (5/5) Accurately ripped
9 | (5/5) Accurately ripped
10 | (5/5) Accurately ripped
11 | (5/5) Accurately ripped
12 | (5/5) Accurately ripped
13 | (5/5) Accurately ripped
14 | (5/5) Accurately ripped
[AccurateRip ID: 0025aec9-018f0ab2-c110b70e] disk not present in database.

Track Peak [ CRC32 ] [W/O NULL] [ LOG ]
-- 100,0 [553B281E] [ED1D6B9A] CRC32
01 100,0 [82B310BE] [0F05B902]
02 100,0 ECF7992 [6D6CB290]
03 100,0 7B19004 [1B1B34B6]
04 100,0 [13C6C09B] [AAD9C0A1]
05 100,0 [D5609901] [786F5841]
06 100,0 [DEA3CC0C] [F10613BC]
07 100,0 [5975DFF7] [82868CF4]
08 100,0 [D5DDCD84] [31815654]
09 100,0 [5483C3B0] [E0ACA32F]
10 100,0 [E5400EE7] [72DE73AF]
11 100,0 ACF0963 [46B52F23]
12 100,0 [41A3AC0C] [0A8F2A06]
13 100,0 [1313DCAB] [F5412278]
14 100,0 [CBB60E25] 4CEB84B

-----------
[CUETools log; Date: 2015.02.15. 8:51:39; Version: 2.1.4]
[CTDB TOCID: 3u6sC.RNKxD99Elr7nRs5a.24vs-] found.
Track | CTDB Status
1 | (5/5) Accurately ripped
2 | (5/5) Accurately ripped
3 | (5/5) Accurately ripped
4 | (5/5) Accurately ripped
5 | (5/5) Accurately ripped
6 | (5/5) Accurately ripped
7 | (5/5) Accurately ripped
8 | (5/5) Accurately ripped
9 | (5/5) Accurately ripped
10 | (5/5) Accurately ripped
11 | (5/5) Accurately ripped
12 | (5/5) Accurately ripped
13 | (5/5) Accurately ripped
14 | (5/5) Accurately ripped
[AccurateRip ID: 001fac3e-01576910-c00f3b0e] disk not present in database.

Track Peak [ CRC32 ] [W/O NULL] [ LOG ]
-- 100,0 [29327B04] [D588E810] CRC32
01 96,4 [62FF98A8] [D160C3C4]
02 100,0 [ED55558F] [104EBD43]
03 100,0 [A268E514] [4AA45A4A]
04 90,9 [2515E614] [3DC5E22F]
05 100,0 [5E1ED446] [2813808F]
06 84,7 [C1C85866] [61AEB863]
07 100,0 [5FA796E6] [0045E859]
08 100,0 [5F6B20B3] [429004E3]
09 100,0 [2857A62B] [185B71CE]
10 100,0 [9C7E6396] [53A67923]
11 100,0 [DCFF6A2F] [66DF230A]
12 100,0 [AF0BF6F1] [F182EDD9]
13 100,0 [28BDFC8D] [C2602A27]
14 100,0 [9B5BBC19] [173CF62E]

Thx to Boris1
DOWNLOAD LINKS:
Buy Premium To Support Me & Get Resumable Support & Max Speed


Links are Interchangeable - No Password - Single Extraction

VA - The Many Faces of Black Sabbath: a Journey Through the Inner World of Black Sabbath (2014) Fast Download


Ad2

 
 
 
Dear visitor, you went to the site as an unregistered user. We encourage you to register or enter the site under your name.
 
   
 
 (Votes #: 0)