2013Zone For Latest Downloads

 
     
 
Legal Downloads » Music » Vision Fields - Voices (1990)
Menu
Home Applications
Games Movies
Music TV Shows
Torrents Graphics

Sitemap

RSS
 
Advanced Search
Last News
Site Info
Top Contributors:
  1    supper88 32766
  2    admin 32693
  3    Whisky 10080
  4    Shark_ 8911
  5    creativelivenew 8706
  6    whathesupa 2799
  7    candymypost 840
  8    hvnteam 629
  9    vuong87 3


Articles:
  This Hour: 0
  Today: 0
  This Month: 10
  All Time: 515561


Torrents:
  Today: 0
  Yesterday: 0
  All Time: 156684


Membership:
  Registered Today :0
  This Hour:0
  This Month:0
  Total:14
  Banned:1

{online}
{inform_torrent}
Friend:
We Recomend
Trend
Trend
Ad1

Search In Site

Music : Vision Fields - Voices (1990)
 
http://i65.fastpic.ru/big/2015/0224/81/d0be8198dc3ab6a26523d85e36a41981.jpg

Vision Fields - Voices (1990)
EAC Rip | FLAC: Image+Cue+Log | 293 Mb | MP3 CBR 320 kbps | 129 Mb | Scans | Time: 41:24
Genre: Melodic Rock, Hi-Tech AOR, Soft Rock | Label: CBS/Epic | Cat.№: EPC 466982 2

"Very Rare German Hi-Tech AOR / AOR Masterpiece!! Another fine album from Vision Fields, the title track is excellent and has a haunting kind of air about it. Great hi tech AOR with a mellow feel you won't be getting your air guitar out much but that isn't a put down as the album is excellent."



Track Listing

01. Voices (03:52)
02. Far Down The Line (03:47)
03. House Of Lonely Hearts (03:47)
04. Till The Work Is Done (04:13)
05. Want You Back Again (03:24)
06. Go Little Sister (03:26)
07. Just Another Dream (03:36)
08. Holding On (04:09)
09. Come On Home (03:18)
10. Ruby (03:27)
11. Voices (Instrumental) (04:20)

Produced by Peter Hauke (Black Jack, Supermax, Nektar, Planet P Project ...)

Musicians

* Johan Daansen: vocals, guitars, keyboards, harp, bass, programming
* Curt Cress: drums

Guests

* Christin Sargent - backing vocals
* Christian Felke - saxophone

Notes

The band has recorded only three albums ... Very soulful music, on the first two of them especially!

Exact Audio Copy V1.0 beta 3 from 29. August 2011

EAC extraction logfile from 21. January 2015, 22:49

Vision Fields / Voices

Used drive : PLEXTOR DVDR PX-716A Adapter: 0 ID: 0

Read mode : Secure
Utilize accurate stream : Yes
Defeat audio cache : Yes
Make use of C2 pointers : No

Read offset correction : 30
Overread into Lead-In and Lead-Out : Yes
Fill up missing offset samples with silence : Yes
Delete leading and trailing silent blocks : No
Null samples used in CRC calculations : Yes
Used interface
: Installed external ASPI interface

Used output format : User Defined Encoder
Selected bitrate : 896 kBit/s
Quality
: High
Add ID3 tag : No
Command line compressor : C:\Program Files (x86)\Exact Audio Copy\Flac\flac.exe
Additional command line options : -V -8 -T "Date=%year%" -T "Genre=%genre%" %source%

TOC of the extracted CD Track | Start | Length | Start sector | End sector
-----------
1 | 0:00.00 | 3:52.37 | 0 | 17436
2 | 3:52.37 | 3:47.25 | 17437 | 34486
3 | 7:39.62 | 3:47.38 | 34487 | 51549
4 | 11:27.25 | 4:13.37 | 51550 | 70561
5 | 15:40.62 | 3:24.50 | 70562 | 85911
6 | 19:05.37 | 3:26.13 | 85912 | 101374
7 | 22:31.50 | 3:36.62 | 101375 | 117636
8 | 26:08.37 | 4:09.63 | 117637 | 136374
9 | 30:18.25 | 3:18.12 | 136375 | 151236
10 | 33:36.37 | 3:27.13 | 151237 | 166774
11 | 37:03.50 | 4:20.25 | 166775 | 186299

Range status and errors

Selected range Filename E:\Vision Fields - 3 Albums\1990 Vision Fields - Voices\Vision Fields - Voices.wav Peak level 86.6 %
Extraction speed 9.8 X
Range quality 99.9 %
Test CRC F71FE7AB
Copy CRC F71FE7AB
Copy OK

No errors occurred


AccurateRip summary

Track 1 accurately ripped (confidence 4) [93B002C7] (AR v2)
Track 2 accurately ripped (confidence 4) [D8A44B5C] (AR v2)
Track 3 accurately ripped (confidence 4) [DD1F250B] (AR v2)
Track 4 accurately ripped (confidence 4) [736CD07D] (AR v2)
Track 5 accurately ripped (confidence 4) [0E27F2C8] (AR v2)
Track 6 accurately ripped (confidence 4) [AAC87DD5] (AR v2)
Track 7 accurately ripped (confidence 4) [D9A08D09] (AR v2)
Track 8 accurately ripped (confidence 4) [E905B319] (AR v2)
Track 9 accurately ripped (confidence 4) [96EB8BAA] (AR v2)
Track 10 accurately ripped (confidence 4) [478FE40F] (AR v2)
Track 11 accurately ripped (confidence 4) [722B1492] (AR v2)

All tracks accurately ripped

End of status report

==== Log checksum 48217250A46A2B3608CA540845684EDBFC8100F170C763693E1EA1B6FCE6C1F1 ====

Many thanks to the original uploader: Konstantin_slash

See also:
*
DOWNLOAD LINKS:
Buy Premium To Support Me & Get Resumable Support & Max Speed


Links are Interchangeable - No Password - Single Extraction

Vision Fields - Voices (1990) Fast Download


Ad2

 
 
 
Dear visitor, you went to the site as an unregistered user. We encourage you to register or enter the site under your name.
 
   
 
 (Votes #: 0)