2013Zone For Latest Downloads

 
     
 
Legal Downloads » Music » Roxy Music - Stranded (1973) [2015, Universal Music Japan, UICY-40124]
Menu
Home Applications
Games Movies
Music TV Shows
Torrents Graphics

Sitemap

RSS
 
Advanced Search
Last News
Site Info
Top Contributors:
  1    supper88 32766
  2    admin 32671
  3    Whisky 10080
  4    Shark_ 8911
  5    creativelivenew 8706
  6    whathesupa 2799
  7    candymypost 840
  8    hvnteam 629
  9    vuong87 3


Articles:
  This Hour: 0
  Today: 0
  This Month: 78
  All Time: 515636


Torrents:
  Today: 0
  Yesterday: 0
  All Time: 156702


Membership:
  Registered Today :0
  This Hour:0
  This Month:0
  Total:14
  Banned:1

{online}
{inform_torrent}
Friend:
We Recomend
Trend
Trend
Ad1

Search In Site

Music : Roxy Music - Stranded (1973) [2015, Universal Music Japan, UICY-40124]
 
http://i60.fastpic.ru/big/2015/0224/0f/f0edc553a4886b07753db7bf51aaec0f.jpg

Roxy Music - Stranded (1973)
EAC | Flac(Image) + Cue + Log & MP3 CBR 320Kbps
Universal Music Japan, UICY-40124 | ~ 240 or 113 Mb | Scans(png) -> 235 Mb
Art Rock / Avantgarde / Glam

"Without Brian Eno, Roxy Music immediately became less experimental, yet it remained adventurous, as Stranded illustrates. Under the direction of Bryan Ferry, Roxy moved toward relatively straightforward territory, adding greater layers of piano and heavy guitars..."

Roxy Music - Stranded (1973):

http://i63.fastpic.ru/big/2015/0224/3f/9e7d5df78cf2bdf09bd480bf81da393f.jpg

Tracklist:

01. Street Life 03:29
02. Just Like You 03:37
03. Amazona 04:17
04. Psalm 08:05
05. Serenade 02:59
06. A Song For Europe 05:47
07. Mother Of Pearl 06:53
08. Sunset 06:06

Exact Audio Copy V1.0 beta 4 from 7. December 2014

EAC extraction logfile from 14. February 2015, 17:54

Roxy Music / Stranded PT-SHM

Used drive : PLEXTOR BD-R PX-B950SA Adapter: 1 ID: 1

Read mode : Secure
Utilize accurate stream : Yes
Defeat audio cache : Yes
Make use of C2 pointers : No

Read offset correction : 6
Overread into Lead-In and Lead-Out : No
Fill up missing offset samples with silence : Yes
Delete leading and trailing silent blocks : No
Null samples used in CRC calculations : Yes
Used interface
: Native Win32 interface for Win NT & 2000

Used output format : Internal WAV Routines
Sample format : 44.100 Hz; 16 Bit; Stereo

TOC of the extracted CD Track | Start | Length | Start sector | End sector
-----------
1 | 0:00.00 | 3:29.57 | 0 | 15731
2 | 3:29.57 | 3:37.18 | 15732 | 32024
3 | 7:07.00 | 4:17.30 | 32025 | 51329
4 | 11:24.30 | 8:05.15 | 51330 | 87719
5 | 19:29.45 | 2:59.65 | 87720 | 101209
6 | 22:29.35 | 5:47.40 | 101210 | 127274
7 | 28:17.00 | 6:53.32 | 127275 | 158281
8 | 35:10.32 | 6:06.45 | 158282 | 185776

Range status and errors

Selected range Filename C:\Users\Meijin\Desktop\ALLexxess\Roxy Music\1973 Stranded (Mini LP PT-SHM Universal Japan 2015)\Roxy Music - Stranded PT-SHM.wav Peak level 97.4 %
Extraction speed 6.4 X
Range quality 100.0 %
Test CRC E119CFFA
Copy CRC E119CFFA
Copy OK

No errors occurred


AccurateRip summary

Track 1 not present in database
Track 2 not present in database
Track 3 not present in database
Track 4 not present in database
Track 5 not present in database
Track 6 not present in database
Track 7 not present in database
Track 8 not present in database

None of the tracks are present in the AccurateRip database

End of status report

---- CUETools DB Plugin V2.1.4

[CTDB TOCID: G71DFcA0zkQBYZTKQikmiXcdNtA-] disk not present in database
Submit result: G71DFcA0zkQBYZTKQikmiXcdNtA- has been uploaded

==== Log checksum F219DBF371836D431FB06825FF15625B9856D719055FD23BA740542D4F88446E ====

foobar2000 1.2.9 / Dynamic Range Meter 1.1.1
log date: 2015-02-22 05:18:28

--
Analyzed: Roxy Music / Stranded PT-SHM
--

DR Peak RMS Duration Track
--
DR11 -0.23 dB -13.93 dB 3:30 01-Street Life
DR13 -2.56 dB -18.14 dB 3:37 02-Just Like You
DR11 -0.58 dB -14.98 dB 4:17 03-Amazona
DR13 -1.48 dB -18.37 dB 8:05 04-Psalm
DR12 -0.47 dB -13.84 dB 3:00 05-Serenade
DR11 -1.77 dB -15.96 dB 5:48 06-A Song For Europe
DR13 -1.43 dB -16.94 dB 6:53 07-Mother of Pearl
DR13 -2.62 dB -19.81 dB 6:07 08-Sunset
--

Number of tracks: 8
Official DR value: DR12

Samplerate: 44100 Hz
Channels: 2
Bits per sample: 16
Bitrate: 734 kbps
Codec: FLAC

[CUETools log; Date: 22.02.2015 5:18:50; Version: 2.1.4]
[CTDB TOCID: G71DFcA0zkQBYZTKQikmiXcdNtA-] found.
Track | CTDB Status
1 | (1/1) Accurately ripped
2 | (1/1) Accurately ripped
3 | (1/1) Accurately ripped
4 | (1/1) Accurately ripped
5 | (1/1) Accurately ripped
6 | (1/1) Accurately ripped
7 | (1/1) Accurately ripped
8 | (1/1) Accurately ripped
[AccurateRip ID: 000b9637-004f7756-5c09ad08] disk not present in database.

Track Peak [ CRC32 ] [W/O NULL] [ LOG ]
-- 97,4 [E119CFFA] [8530D788] CRC32
01 97,4 [C908314A] [9B689ACE]
02 74,4 [2BE0D828] [AF14684D]
03 93,5 [3D395AAC] [E66DA20F]
04 84,3 651A03C [0D7BB455]
05 94,7 [55DEF1B8] [F0720C31]
06 81,5 [E1575101] [64D7DB96]
07 84,8 [A43B2C3E] [AB839D4F]
08 73,9 [4AA900FC] [FB4CA5F5]

http://i68.fastpic.ru/big/2015/0224/60/ea0725c383684b8681f30205685dd160.jpg

DOWNLOAD LINKS:
Buy Premium To Support Me & Get Resumable Support & Max Speed


Links are Interchangeable - No Password - Single Extraction



Ad2

 
 
 
Dear visitor, you went to the site as an unregistered user. We encourage you to register or enter the site under your name.
 
   
 
 (Votes #: 0)