2013Zone For Latest Downloads

 
     
 
Legal Downloads » Music » New York Voices - Let It Snow (2013) [2014 Audio Fidelity SACD AFZ5 520]
Menu
Home Applications
Games Movies
Music TV Shows
Torrents Graphics

Sitemap

RSS
 
Advanced Search
Last News
Site Info
Top Contributors:
  1    supper88 32766
  2    admin 32708
  3    Whisky 10080
  4    Shark_ 8911
  5    creativelivenew 8706
  6    whathesupa 2799
  7    candymypost 840
  8    hvnteam 629
  9    vuong87 3


Articles:
  This Hour: 0
  Today: 17
  This Month: 17
  All Time: 515518


Torrents:
  Today: 0
  Yesterday: 0
  All Time: 156676


Membership:
  Registered Today :0
  This Hour:0
  This Month:0
  Total:14
  Banned:1

{online}
{inform_torrent}
Friend:
Full Download Scripts
Torrent Download
Trend
Trend

Search In Site

Music : New York Voices - Let It Snow (2013) [2014 Audio Fidelity SACD AFZ5 520]
 
http://i64.fastpic.ru/big/2015/0224/24/c5ecf87bbae95652c25cf9ff2d584b24.jpg

New York Voices - Let It Snow (2013) [2014 Audio Fidelity SACD AFZ5 520]
EAC Secure Rip | FLAC (Image + Cue + Log) - 331 MB | Complete Scans (Jpeg 600 dpi) - 109 MB | MP3 (CBR320 Kbps) - 139 MB
Jazz, Vocal, Pop | Audio Fidelity | AFZ5 520 | 52:28 minutes | Hosted On: NitroFlare &
CONTAINS CD LAYER ONLY

New York Voices is unquestionably one of the finest singing ensembles ever assembled and with Let It Snow, lend their quality vocals to the wintery season of cheer delivering a powerful performance of familiar Christmas songs sure to be regarded as a future holiday classic.
Exact Audio Copy V1.0 beta 2 from 29. April 2011

EAC extraction logfile from 14. February 2015, 12:40

New York Voices / Let It Snow [2014 Audio Fidelity SACD AFZ5 520]

Used drive : HL-DT-STBD-RE BH14NS40 Adapter: 0 ID: 2

Read mode : Secure
Utilize accurate stream : Yes
Defeat audio cache : Yes
Make use of C2 pointers : No

Read offset correction : 6
Overread into Lead-In and Lead-Out : No
Fill up missing offset samples with silence : Yes
Delete leading and trailing silent blocks : No
Null samples used in CRC calculations : Yes
Used interface
: Native Win32 interface for Win NT & 2000

Used output format : User Defined Encoder
Selected bitrate : 1024 kBit/s
Quality
: High
Add ID3 tag : No
Command line compressor : C:\Program Files (x86)\Exact Audio Copy\Flac\flac.exe
Additional command line options : -V -5 -T "artist=%albumartist%" -T "title=%title%" -T "album=%albumtitle%" -T "date=%year%" -T "genre=%genre%" -T "tracknumber=%tracknr%" %source%

TOC of the extracted CD Track | Start | Length | Start sector | End sector
-----------
1 | 0:00.00 | 3:33.07 | 0 | 15981
2 | 3:33.07 | 5:00.25 | 15982 | 38506
3 | 8:33.32 | 4:46.56 | 38507 | 60012
4 | 13:20.13 | 1:37.41 | 60013 | 67328
5 | 14:57.54 | 3:23.34 | 67329 | 82587
6 | 18:21.13 | 2:32.50 | 82588 | 94037
7 | 20:53.63 | 2:36.59 | 94038 | 105796
8 | 23:30.47 | 3:01.56 | 105797 | 119427
9 | 26:32.28 | 5:23.11 | 119428 | 143663
10 | 31:55.39 | 5:48.40 | 143664 | 169803
11 | 37:44.04 | 6:42.00 | 169804 | 199953
12 | 44:26.04 | 2:24.63 | 199954 | 210816
13 | 46:50.67 | 4:30.20 | 210817 | 231086
14 | 51:21.12 | 2:06.20 | 231087 | 240556

Range status and errors

Selected range Filename C:\EAC\New York Voices - (2013) Let It Snow [2014 Audio Fidelity SACD AFZ5 520]\New York Voices - Let It Snow [2014 Audio Fidelity SACD AFZ5 520].wav Peak level 99.9 %
Extraction speed 4.5 X
Range quality 100.0 %
Test CRC 8118E16E
Copy CRC 8118E16E
Copy OK

No errors occurred


AccurateRip summary

Track 1 accurately ripped (confidence 3) [98977068] (AR v2)
Track 2 accurately ripped (confidence 3) [EC00F8C7] (AR v2)
Track 3 accurately ripped (confidence 3) [43DF7C2D] (AR v2)
Track 4 accurately ripped (confidence 3) [18E4CE7B] (AR v2)
Track 5 accurately ripped (confidence 3) [E3D28B23] (AR v2)
Track 6 accurately ripped (confidence 3) [4CD42313] (AR v2)
Track 7 accurately ripped (confidence 3) 9127C04 (AR v2)
Track 8 accurately ripped (confidence 3) [1DEBD830] (AR v2)
Track 9 accurately ripped (confidence 3) [580E882A] (AR v2)
Track 10 accurately ripped (confidence 3) [633672BB] (AR v2)
Track 11 accurately ripped (confidence 3) [1AA97129] (AR v2)
Track 12 accurately ripped (confidence 3) [A91DE837] (AR v2)
Track 13 accurately ripped (confidence 3) [41F05065] (AR v2)
Track 14 accurately ripped (confidence 3) [0EB724C3] (AR v2)

All tracks accurately ripped

End of status report

==== Log checksum 55CD405577B9B7540D2F128CF6B47CF3CBC1F325605FC7708AC1CF8F0AA17916 ====

Track Listing:

01. Let It Snow
02. Christmas Song/Christmas Time
03. O, Little Town Of Bethlehem
04. O Come, O Come, Emmanuel
05. We Three Kings
06. Holiday For Strings
07. Have Yourself A Merry Little Christmas
08. Sleepers, Wake!
09. O Come, All Ye Faithful
10. The Merry Medley
11. I Wonder As I Wander
12. Coventry Carol
13. We Wish You A Merry Christmas
14. Silent Night

Personnel:

Peter Eldridge - Vocals
Lauren Kinhan - Vocals
Darmon Meader - Vocals
Kim Nazarian - Vocals

Andy Ezrin - piano
Bob Mann - guitar
Paul Nowinski and David Finck - bass
Marcello Pellitteri and Ben Wittman - drums

Album Released: October 29, 2013
Audio Fidelity SACD Released: November 18, 2014

5.1 Surround Sound Mix: Elliot Scheiner
5.1 Surround Sound Mastering: Elliot Scheiner
2 Track Stereo Mastering: Darcy Proper

foobar2000 1.3.2 / Dynamic Range Meter 1.1.0
log date: 2015-02-22 02:45:03

--
Analyzed: New York Voices / Let It Snow [2014 Audio Fidelity SACD AFZ5 520]
--

DR Peak RMS Duration Track
--
DR9 -0.21 dB -11.80 dB 3:33 01-Let It Snow
DR10 -0.06 dB -12.30 dB 5:00 02-Christmas Song/Christmas Time
DR10 -0.04 dB -12.43 dB 4:47 03-O, Little Town Of Bethlehem
DR10 -1.11 dB -15.19 dB 1:38 04-O Come, O Come, Emmanuel
DR7 -0.30 dB -9.43 dB 3:23 05-We Three Kings
DR9 0.00 dB -10.58 dB 2:33 06-Holiday For Strings
DR12 -0.16 dB -15.67 dB 2:37 07-Have Yourself A Merry Little Christmas
DR8 -0.36 dB -11.73 dB 3:02 08-Sleepers, Wake!
DR9 -0.19 dB -12.43 dB 5:23 09-O Come, All Ye Faithful
DR9 0.00 dB -12.19 dB 5:49 10-The Merry Medley
DR9 -0.02 dB -12.50 dB 6:42 11-I Wonder As I Wander
DR10 -1.10 dB -16.16 dB 2:25 12-Coventry Carol
DR9 0.00 dB -11.81 dB 4:30 13-We Wish You A Merry Christmas
DR10 -1.64 dB -15.67 dB 2:06 14-Silent Night
--

Number of tracks: 14
Official DR value: DR9

Samplerate: 44100 Hz
Channels: 2
Bits per sample: 16
Bitrate: 823 kbps
Codec: FLAC

http://i65.fastpic.ru/big/2015/0224/28/c833fc9c9f0a8d5c53f1f11a2d780b28.jpg

http://i66.fastpic.ru/big/2015/0224/28/8c3a459997c569173c681b7680445e28.jpg

http://i63.fastpic.ru/big/2015/0224/8e/ddbe5968ac964842706d02cb92eb828e.jpg


DOWNLOAD LINKS:
Buy Premium To Support Me & Get Resumable Support & Max Speed


Links are Interchangeable - No Password - Single Extraction

New York Voices - Let It Snow (2013) [2014 Audio Fidelity SACD AFZ5 520] Fast Download



 
 
 
Dear visitor, you went to the site as an unregistered user. We encourage you to register or enter the site under your name.
 
   
 
 (Votes #: 0)