2013Zone For Latest Downloads

 
     
 
Legal Downloads » Music » Bernard Allison - Higher Power (2004)
Menu
Home Applications
Games Movies
Music TV Shows
Torrents Graphics

Sitemap

RSS
 
Advanced Search
Last News
Site Info
Top Contributors:
  1    supper88 32766
  2    admin 32711
  3    Whisky 10080
  4    Shark_ 8911
  5    creativelivenew 8706
  6    whathesupa 2799
  7    candymypost 840
  8    hvnteam 629
  9    vuong87 3


Articles:
  This Hour: 0
  Today: 0
  This Month: 0
  All Time: 515503


Torrents:
  Today: 0
  Yesterday: 0
  All Time: 156678


Membership:
  Registered Today :0
  This Hour:0
  This Month:0
  Total:14
  Banned:1

{online}
{inform_torrent}
Friend:
Full Download Scripts
Torrent Download
Trend
Trend

Search In Site

Music : Bernard Allison - Higher Power (2004)
 
http://i67.fastpic.ru/big/2015/0224/fc/879f1d702e518f08ede381a5d033b5fc.jpg

Bernard Allison - Higher Power (2004)
EAC | WV | Image (Cue&Log) ~ 434 Mb (incl 5%) | Mp3 (CBR320) ~ 158 Mb (incl 5%) | Scans included
Genre: Modern Electric Blues, Blues Rock | Label: Ruf | # RUF 1101 | Time: 00:59:05

"Bernard Allison got some valuable advice from his father, Luther, before the latter's death in 1997: "Don't be afraid to go outside of the blues," he said. "Don't let them label you like they did me." Bernard has obviously taken that advice to heart; his solo albums have been a rich mixture of rock, funk, blues, and R&B. Most of his recordings have been released in Europe, where he has made his home for a decade. The release of Higher Power comes a little while after his return to the States, and reflects a lifetime of both good times and bad."



Tracklist:

01. I've Learned My Lesson (03:17)
02. Raggedy and Dirty (04:06)
03. Standing on the Edge of Love (04:14)
04. Stay With Me Tonight (05:08)
05. Too Cool (04:38)
06. It's a Man Down There (06:07)
07. New Life I'm In (04:03)
08. Woman Named Trouble (04:22)
09. Time Flies By (05:07)
10. Stakes Have Gone Up (04:29)
11. Into My Life (04:28)
12. Next 2 U (03:39)
13. Ami (05:22)


Exact Audio Copy V0.99 prebeta 4 from 23. January 2008

EAC extraction logfile from 21. June 2008, 23:12

Bernard Allison / Higher Power

Used drive : TSSTcorpCD/DVDW SH-S182M Adapter: 4 ID: 0

Read mode : Secure
Utilize accurate stream : Yes
Defeat audio cache : Yes
Make use of C2 pointers : No

Read offset correction : 6
Overread into Lead-In and Lead-Out : No
Fill up missing offset samples with silence : Yes
Delete leading and trailing silent blocks : No
Null samples used in CRC calculations : Yes
Used interface
: Installed external ASPI interface

Used output format : Internal WAV Routines
Sample format : 44.100 Hz; 16 Bit; Stereo

TOC of the extracted CD Track | Start | Length | Start sector | End sector
-----------
1 | 0:00.00 | 3:17.02 | 0 | 14776
2 | 3:17.02 | 4:06.01 | 14777 | 33227
3 | 7:23.03 | 4:15.00 | 33228 | 52352
4 | 11:38.03 | 5:08.46 | 52353 | 75498
5 | 16:46.49 | 4:38.54 | 75499 | 96402
6 | 21:25.28 | 6:07.30 | 96403 | 123957
7 | 27:32.58 | 4:03.36 | 123958 | 142218
8 | 31:36.19 | 4:22.00 | 142219 | 161868
9 | 35:58.19 | 5:07.20 | 161869 | 184913
10 | 41:05.39 | 4:29.02 | 184914 | 205090
11 | 45:34.41 | 4:28.49 | 205091 | 225239
12 | 50:03.15 | 3:39.36 | 225240 | 241700
13 | 53:42.51 | 5:22.35 | 241701 | 265885

Range status and errors

Selected range Filename F:\Release\Bernard Allison - Higher Power\Bernard Allison - Higher Power.wav Peak level 98.8 %
Range quality 100.0 %
Test CRC 4967B428
Copy CRC 4967B428
Copy OK

No errors occurred


AccurateRip summary

Track 1 not present in database
Track 2 not present in database
Track 3 not present in database
Track 4 not present in database
Track 5 not present in database
Track 6 not present in database
Track 7 not present in database
Track 8 not present in database
Track 9 not present in database
Track 10 not present in database
Track 11 not present in database
Track 12 not present in database
Track 13 not present in database

None of the tracks are present in the AccurateRip database

End of status report

foobar2000 1.2 / Dynamic Range Meter 1.1.1
log date: 2015-02-21 22:24:25

--
Analyzed: Bernard Allison / Higher Power
--

DR Peak RMS Duration Track
--
DR7 -0.10 dB -7.91 dB 3:17 01-I've Learned My Lesson
DR7 -0.10 dB -8.49 dB 4:06 02-Raggedy and Dirty
DR8 -0.10 dB -8.89 dB 4:15 03-Standing on the Edge of Love
DR8 -0.10 dB -8.55 dB 5:09 04-Stay With Me Tonight
DR8 -0.10 dB -9.15 dB 4:39 05-Too Cool
DR8 -0.10 dB -9.19 dB 6:07 06-It's a Man Down There
DR7 -0.10 dB -8.21 dB 4:03 07-New Life I'm In
DR7 -0.10 dB -8.46 dB 4:22 08-Woman Named Trouble
DR8 -0.10 dB -9.08 dB 5:07 09-Time Flies By
DR7 -0.10 dB -8.11 dB 4:29 10-Stakes Have Gone Up
DR7 -0.10 dB -8.20 dB 4:29 11-Into My Life
DR7 -0.10 dB -7.53 dB 3:39 12-Next 2 U
DR12 -0.10 dB -14.08 dB 5:22 13-Ami
--

Number of tracks: 13
Official DR value: DR8

Samplerate: 44100 Hz
Channels: 2
Bits per sample: 16
Bitrate: 943 kbps
Codec: WavPack

http://i66.fastpic.ru/big/2015/0224/67/405f629d23b5a88208d4c441cebf9c67.jpg

http://i64.fastpic.ru/big/2015/0224/3e/72084eaf60c0a5ad30c1ed89a3aab83e.jpg


DOWNLOAD LINKS:
Buy Premium To Support Me & Get Resumable Support & Max Speed


Links are Interchangeable - No Password - Single Extraction

Bernard Allison - Higher Power (2004) Fast Download



 
 
 
Dear visitor, you went to the site as an unregistered user. We encourage you to register or enter the site under your name.
 
   
 
 (Votes #: 0)