2013Zone For Latest Downloads

 
     
 
Legal Downloads » Music » The Pointer Sisters - Black & White (1981) [1995, Reissue]
Menu
Home Applications
Games Movies
Music TV Shows
Torrents Graphics

Sitemap

RSS
 
Advanced Search
Last News
Site Info
Top Contributors:
  1    supper88 32766
  2    admin 32711
  3    Whisky 10080
  4    Shark_ 8911
  5    creativelivenew 8706
  6    whathesupa 2799
  7    candymypost 840
  8    hvnteam 629
  9    vuong87 3


Articles:
  This Hour: 0
  Today: 0
  This Month: 0
  All Time: 515501


Torrents:
  Today: 0
  Yesterday: 0
  All Time: 156676


Membership:
  Registered Today :0
  This Hour:0
  This Month:0
  Total:14
  Banned:1

{online}
{inform_torrent}
Friend:
Full Download Scripts
Torrent Download
Trend
Trend

Search In Site

Music : The Pointer Sisters - Black & White (1981) [1995, Reissue]
 
http://i58.fastpic.ru/big/2015/0224/4e/8e4d66cacb9d3f9ebd75a89d0e480c4e.jpg

The Pointer Sisters - Black & White (1981) [1995, Reissue]
R&B, Soul, Pop/Rock | EAC Rip | FLAC, Img+CUE + LOG + Full Scans-600dpi (JPEG) | 37:13 Min | 249,45 Mb
Label: Planet Records / BMG Music (USA) | 1995, May, 23

"
Black & White is the eighth studio album by the Pointer Sisters, released in 1981 on the Planet label. Black & White was their fourth record with producer Richard Perry and yielded the #2 pop hit "Slow Hand". The fourth single release, "Should I Do It", reached #13 in the spring of 1982, making Black & White the first Pointer Sisters album to yield two Top Twenty hits. Black & White was certified Gold in September 1981.
"

http://i66.fastpic.ru/big/2015/0224/f6/8e8d3c9bdde936c23272d8297f41faf6.jpg

http://i65.fastpic.ru/big/2015/0224/b7/75c9423b8fa429dabea6f43503d694b7.jpg


Release of the album: 1983 [LP Planet Records, Cat.# P-18, USA]
Release of this CD: 1995, May, 23 [CD Funkytowngrooves (USA), Cat.#07863-55092-2 / UPC: 078635509229]
RCA Records
℗1981 Planet Records, ℗ & © 1995 BMG Music
Marnufactured & Distributed by BMG Music

Produced by: Richard Perry

Arranged By [Vocals] - Pointer Sisters
Bass - Mike Porcaro (tracks: A5), Nate Watts (tracks: A1 to A4, B1 to B4)
Congas - Paulinho Da Costa (tracks: A5)
Coordinator [Music] - Michael Barackman
Coordinator [Production] - Michael Solomon, Susan Epstein
Design, Art Direction - Kosh
Drums - John Robinson
Electric Piano - Greg Phillinganes (tracks: B4), John Barnes (tracks: A4)
Engineer - Gabe Veltri, Piers Plaskitt
Engineer [Assistant] - Bobby Gerber, Stuart Furusho, Tim Dennen
Engineer [Remix] - Bill Schnee
Guitar - Paul Jackson (tracks: A1 to A4, B1 to B4), Tim May (tracks: A1 to A4, B1 to B4)
Guitar [Solo] - Paul Jackson (tracks: B3)
Keyboards - James Newton Howard (tracks: A1), John Barnes (tracks: A2, A3, B1 to B3)
Lead Vocals - Anita (tracks: A2, A4, A5, B1), June (tracks: A1, A5, B2 to B4), Ruth (tracks: A3)
Mastered By - Larry Emerine, Stephen Marcussen
Organ - Danny Faragher (tracks: B4), William Smith (2) (tracks: A4)
Percussion - Paulinho Da Costa (tracks: A1 to A4, B1 to B4)
Photography By - Aaron Rapoport
Piano - John Barnes (tracks: B4)
Producer [Associalte] - Trevor Lawrence
Synthesizer - Ed Walsh (tracks: A2, B1, B2), James Newton Howard (tracks: A1, A3, B3)
Synthesizer [Keyboard] - David Foster (tracks: A5)
Synthesizer, Programmed By [Synthesizer] - Mike Cotten (tracks: A5)
Tenor Saxophone [Solo] - Cool T. (tracks: A3, B1, B4)


Tracklist:

01. Sweet Lover Man (04:13)
(Jerry Ragovoy, Len Roberts)
02. Someday We'll Be Together (04:40)
(Russ Ballard)
03. Take My Heart, Take My Soul (04:07)
(Ken Gold, Micky Denne)
04. Slow Hand (03:55)
(John Bettis, Michael Clark)
05. We're Gonna Make It (03:54)
(Anita Pointer, David Foster, June Pointer, Mike Cotton)
06. What A Surprise (03:50)
(Anita Pointer, June Pointer, Trevor Lawrence)
07. Got To Find Love (04:08)
(David Lasley, Willie Wilcox)
08. Fall In Love Again (04:32)
(Patrick Henderson, Wornell Jones)
09. Should I Do It (03:54)
(Layng Martine Jr.)

Exact Audio Copy V1.0 beta 3 from 29. August 2011

EAC extraction logfile from 21. April 2013, 13:56

The Pointer Sisters / Black & White

Used drive : ATAPI DVD DW 8X16X8X16 Adapter: 0 ID: 2

Read mode : Secure
Utilize accurate stream : Yes
Defeat audio cache : Yes
Make use of C2 pointers : No

Read offset correction : 618
Overread into Lead-In and Lead-Out : No
Fill up missing offset samples with silence : Yes
Delete leading and trailing silent blocks : No
Null samples used in CRC calculations : Yes
Used interface
: Native Win32 interface for Win NT & 2000

Used output format : Internal WAV Routines
Sample format : 44.100 Hz; 16 Bit; Stereo

TOC of the extracted CD Track | Start | Length | Start sector | End sector
-----------
1 | 0:00.00 | 4:13.12 | 0 | 18986
2 | 4:13.12 | 4:40.28 | 18987 | 40014
3 | 8:53.40 | 4:07.32 | 40015 | 58571
4 | 13:00.72 | 3:55.18 | 58572 | 76214
5 | 16:56.15 | 3:54.62 | 76215 | 93826
6 | 20:51.02 | 3:50.00 | 93827 | 111076
7 | 24:41.02 | 4:08.25 | 111077 | 129701
8 | 28:49.27 | 4:32.63 | 129702 | 150164
9 | 33:22.15 | 3:54.37 | 150165 | 167751

Range status and errors

Selected range Filename C:\BlondStyle\The Pointer Sisters - Black & White.wav Peak level 99.6 %
Extraction speed 7.4 X
Range quality 99.9 %
Test CRC 0CC023CA
Copy CRC 0CC023CA
Copy OK

No errors occurred


AccurateRip summary

Track 1 accurately ripped (confidence 1) [8114E90E] (AR v1)
Track 2 accurately ripped (confidence 1) [9542D383] (AR v1)
Track 3 accurately ripped (confidence 1) [684F8DA0] (AR v1)
Track 4 accurately ripped (confidence 1) [C8B21D0E] (AR v1)
Track 5 accurately ripped (confidence 1) [9E49468C] (AR v1)
Track 6 accurately ripped (confidence 1) [2387F1D1] (AR v1)
Track 7 accurately ripped (confidence 1) [6273DE4C] (AR v1)
Track 8 accurately ripped (confidence 1) [9B208634] (AR v1)
Track 9 accurately ripped (confidence 1) [147AB10E] (AR v1)

All tracks accurately ripped

End of status report

==== Log checksum C4DFE4879326A559F83E6DC7488047728AAD2E4575743265AD383342C8548FD7 ====

[Disc ID: 000ce9e8-005e4e99-6308bc09]
Track [ CRC ] Status
01 [8114e90e] (01/01) Accurately ripped as in pressing(s) #1
02 [9542d383] (01/01) Accurately ripped as in pressing(s) #1
03 [684f8da0] (01/01) Accurately ripped as in pressing(s) #1
04 [c8b21d0e] (01/01) Accurately ripped as in pressing(s) #1
05 [9e49468c] (01/01) Accurately ripped as in pressing(s) #1
06 [2387f1d1] (01/01) Accurately ripped as in pressing(s) #1
07 [6273de4c] (01/01) Accurately ripped as in pressing(s) #1
08 [9b208634] (01/01) Accurately ripped as in pressing(s) #1
09 [147ab10e] (01/01) Accurately ripped as in pressing(s) #1

-
Statistics for: The Pointer Sisters - Black & White.wav
Number of Samples: 98638176
- left right

Peak value: -0.10 dB --- -0.03 dB
Avg RMS: -17.28 dB --- -16.47 dB
DR channel: 14.55 dB --- 14.02 dB
-

Official DR value: DR14
=
DOWNLOAD LINKS:
Buy Premium To Support Me & Get Resumable Support & Max Speed


Links are Interchangeable - No Password - Single Extraction

The Pointer Sisters - Black & White (1981) [1995, Reissue] Fast Download



 
 
 
Dear visitor, you went to the site as an unregistered user. We encourage you to register or enter the site under your name.
 
   
 
 (Votes #: 0)