2013Zone For Latest Downloads

 
     
 
Legal Downloads » Music » Rickie Lee Jones - Naked Songs: Live and Acoustic (1995) [Re-Up]
Menu
Home Applications
Games Movies
Music TV Shows
Torrents Graphics

Sitemap

RSS
 
Advanced Search
Last News
Site Info
Top Contributors:
  1    supper88 32766
  2    admin 32671
  3    Whisky 10080
  4    Shark_ 8911
  5    creativelivenew 8706
  6    whathesupa 2799
  7    candymypost 840
  8    hvnteam 629
  9    vuong87 3


Articles:
  This Hour: 0
  Today: 0
  This Month: 58
  All Time: 515616


Torrents:
  Today: 0
  Yesterday: 0
  All Time: 156702


Membership:
  Registered Today :0
  This Hour:0
  This Month:0
  Total:14
  Banned:1

{online}
{inform_torrent}
Friend:
We Recomend
Trend
Trend
Ad1

Search In Site

Music : Rickie Lee Jones - Naked Songs: Live and Acoustic (1995) [Re-Up]
 
http://i64.fastpic.ru/big/2015/0224/f7/572710aabb68934c60d56ed349eabff7.jpg

Rickie Lee Jones - Naked Songs: Live and Acoustic (1995)
EAC | FLAC | Tracks (Cue&Log) ~ 380 Mb (incl 5%) | Mp3 (CBR320) ~ 180 Mb (incl 5%) | Scans included
Genre: Folk Rock, Soft Rock, Acoustic, Singer/Songwriter | Label: Reprise/WEA | # WPCR-281 | Time: 01:09:26

"Rickie Lee Jones "unplugged" -- in fact, solo with an acoustic guitar or piano on all but a couple of tunes -- Naked Songs is otherwise a retrospective concert album on which Jones cherry-picks songs from her five studio albums, including the hits "Chuck E.'s in Love" and "Young Blood," and others from her breakthrough debut record. The studio album arrangements always tried to support and augment Jones' idiosyncratic writing and playing style, which sounds less unusual when she is simply accompanying herself, and in many ways more effective. "Altar Boy," a previously unreleased song, strays into Leonard Cohen territory, mixing religion with eroticism."

Biography
Official Website
Wiki

Tracklist:


01. The Horses (04:48)
02. Weasel And The White Boys Cool (05:13)
03. Altar Boy (02:40)
04. It Must Be Love (04:47)
05. Young Blood (03:29)
06. The Last Chance Texaco (04:24)
07. Skeletons (03:41)
08. Magazine (04:39)
09. Living It Up (06:53)
10. We Belong Together (04:59)
11. Coolsville (05:08)
12. Flying Cowboys (05:37)
13. Stewart's Coat (04:04)
14. Chuck E.'s in Love (03:52)
15. Autumn Leaves (05:06)


Exact Audio Copy V0.99 prebeta 5 from 4. May 2009

EAC extraction logfile from 29. December 2010, 22:12

Rickie Lee Jones / Naked Songs (Live And Accoustic)

Used drive : TSSTcorpCDDVDW TS-L633M Adapter: 1 ID: 0

Read mode : Secure
Utilize accurate stream : Yes
Defeat audio cache : Yes
Make use of C2 pointers : No

Read offset correction : 6
Overread into Lead-In and Lead-Out : No
Fill up missing offset samples with silence : Yes
Delete leading and trailing silent blocks : No
Null samples used in CRC calculations : Yes
Used interface
: Native Win32 interface for Win NT & 2000
Gap handling
: Appended to previous track

Used output format : User Defined Encoder
Selected bitrate : 128 kBit/s
Quality
: High
Add ID3 tag : No
Command line compressor : C:\Users\АОА\Desktop\Новая папка\bin\flac.exe
Additional command line options : -8 -V -T "ARTIST=%a" -T "TITLE=%t" -T "ALBUM=%g" -T "DATE=%y" -T "TRACKNUMBER=%n" -T "GENRE=%m" -T "COMMENT=EAC FLAC -8" %s

TOC of the extracted CD Track | Start | Length | Start sector | End sector
-----------
1 | 0:00.00 | 4:48.55 | 0 | 21654
2 | 4:48.55 | 5:13.63 | 21655 | 45192
3 | 10:02.43 | 2:40.17 | 45193 | 57209
4 | 12:42.60 | 4:47.13 | 57210 | 78747
5 | 17:29.73 | 3:29.00 | 78748 | 94422
6 | 20:58.73 | 4:24.65 | 94423 | 114287
7 | 25:23.63 | 3:41.10 | 114288 | 130872
8 | 29:04.73 | 4:39.12 | 130873 | 151809
9 | 33:44.10 | 6:53.60 | 151810 | 182844
10 | 40:37.70 | 4:59.13 | 182845 | 205282
11 | 45:37.08 | 5:08.70 | 205283 | 228452
12 | 50:46.03 | 5:37.00 | 228453 | 253727
13 | 56:23.03 | 4:04.50 | 253728 | 272077
14 | 60:27.53 | 3:52.25 | 272078 | 289502
15 | 64:20.03 | 5:06.32 | 289503 | 312484

Track 1 Filename C:\Users\АОА\Desktop\01. Rickie Lee Jones - The Horses.wav Pre-gap length 0:00:02.00 Peak level 100.0 %
Track quality 100.0 %
Test CRC 6207A1FC
Copy CRC 6207A1FC
Track not present in AccurateRip database
Copy OK

Track 2 Filename C:\Users\АОА\Desktop\02. Rickie Lee Jones - Weasel And The White Boys Cool.wav Peak level 100.0 %
Track quality 100.0 %
Test CRC 663B4E52
Copy CRC 663B4E52
Track not present in AccurateRip database
Copy OK

Track 3 Filename C:\Users\АОА\Desktop\03. Rickie Lee Jones - Altar Boy.wav Peak level 96.3 %
Track quality 100.0 %
Test CRC 2654B22F
Copy CRC 2654B22F
Track not present in AccurateRip database
Copy OK

Track 4 Filename C:\Users\АОА\Desktop\04. Rickie Lee Jones - It Must Be Love.wav Peak level 100.0 %
Track quality 100.0 %
Test CRC C2012752
Copy CRC C2012752
Track not present in AccurateRip database
Copy OK

Track 5 Filename C:\Users\АОА\Desktop\05. Rickie Lee Jones - Young Blood.wav Peak level 100.0 %
Track quality 100.0 %
Test CRC 80124466
Copy CRC 80124466
Track not present in AccurateRip database
Copy OK

Track 6 Filename C:\Users\АОА\Desktop\06. Rickie Lee Jones - The Last Chance Texaco.wav Peak level 99.9 %
Track quality 100.0 %
Test CRC 430B488A
Copy CRC 430B488A
Track not present in AccurateRip database
Copy OK

Track 7 Filename C:\Users\АОА\Desktop\07. Rickie Lee Jones - Skeletons.wav Peak level 100.0 %
Track quality 99.9 %
Test CRC 0EBDEC73
Copy CRC 0EBDEC73
Track not present in AccurateRip database
Copy OK

Track 8 Filename C:\Users\АОА\Desktop\08. Rickie Lee Jones - Magazine.wav Peak level 99.9 %
Track quality 100.0 %
Test CRC 57F76299
Copy CRC 57F76299
Track not present in AccurateRip database
Copy OK

Track 9 Filename C:\Users\АОА\Desktop\09. Rickie Lee Jones - Living It Up.wav Peak level 100.0 %
Track quality 100.0 %
Test CRC 8E32C331
Copy CRC 8E32C331
Track not present in AccurateRip database
Copy OK

Track 10 Filename C:\Users\АОА\Desktop\10. Rickie Lee Jones - We Belong Together.wav Peak level 100.0 %
Track quality 99.9 %
Test CRC 4DC91795
Copy CRC 4DC91795
Track not present in AccurateRip database
Copy OK

Track 11 Filename C:\Users\АОА\Desktop\11. Rickie Lee Jones - Coolsville.wav Peak level 100.0 %
Track quality 100.0 %
Test CRC 263678F8
Copy CRC 263678F8
Track not present in AccurateRip database
Copy OK

Track 12 Filename C:\Users\АОА\Desktop\12. Rickie Lee Jones - Flying Cowboys.wav Peak level 99.9 %
Track quality 100.0 %
Test CRC DCF3F6AD
Copy CRC DCF3F6AD
Track not present in AccurateRip database
Copy OK

Track 13 Filename C:\Users\АОА\Desktop\13. Rickie Lee Jones - Stewart's Coat.wav Peak level 100.0 %
Track quality 100.0 %
Test CRC E03CA68B
Copy CRC E03CA68B
Track not present in AccurateRip database
Copy OK

Track 14 Filename C:\Users\АОА\Desktop\14. Rickie Lee Jones - Chuck E.'s in Love.wav Peak level 100.0 %
Track quality 100.0 %
Test CRC 2C42FA88
Copy CRC 2C42FA88
Track not present in AccurateRip database
Copy OK

Track 15 Filename C:\Users\АОА\Desktop\15. Rickie Lee Jones - Autumn Leaves.wav Peak level 100.0 %
Track quality 100.0 %
Test CRC 0915C671
Copy CRC 0915C671
Track not present in AccurateRip database
Copy OK

None of the tracks are present in the AccurateRip database

No errors occurred

End of status report

[CUETools log; Date: 22.02.2015 16:29:07; Version: 2.1.4]
[CTDB TOCID: VAIRaIg6HH4gKGxa6KgxJlhy_3w-] found.
Track | CTDB Status
1 | (3/3) Accurately ripped
2 | (3/3) Accurately ripped
3 | (3/3) Accurately ripped
4 | (3/3) Accurately ripped
5 | (3/3) Accurately ripped
6 | (3/3) Accurately ripped
7 | (3/3) Accurately ripped
8 | (3/3) Accurately ripped
9 | (3/3) Accurately ripped
10 | (3/3) Accurately ripped
11 | (3/3) Accurately ripped
12 | (3/3) Accurately ripped
13 | (3/3) Accurately ripped
14 | (2/3) Accurately ripped
15 | (2/3) Accurately ripped
[AccurateRip ID: 002535af-01a918d6-d110460f] found.
Track [ CRC | V2 ] Status
01 [d5da9ac2|623cfc2b] (0+6/6) Accurately ripped
02 [5c482d20|f716c1a2] (0+6/6) Accurately ripped
03 [d2caeb0d|888230da] (0+6/6) Accurately ripped
04 [35786c0f|ed1ad50c] (0+6/6) Accurately ripped
05 [1073ebe2|1ca2b0ea] (0+6/6) Accurately ripped
06 [e8a166ee|0e01a5e5] (0+6/6) Accurately ripped
07 [88bfcd42|44b9b4dc] (0+6/6) Accurately ripped
08 72c1ed0|b21be91c (0+6/6) Accurately ripped
09 [cd8d9d0b|cb47758c] (0+6/6) Accurately ripped
10 [c4ad36c3|780f6b5e] (0+6/6) Accurately ripped
11 [33fb77ba|07575c72] (0+6/6) Accurately ripped
12 [3dc0dfc3|79085cb4] (0+6/6) Accurately ripped
13 [280e3c8b|92f0fc48] (0+6/6) Accurately ripped
14 [23377784|ed65ad0c] (0+6/6) Accurately ripped
15 [513c4483|e9c140cc] (0+6/6) Accurately ripped

Track Peak [ CRC32 ] [W/O NULL] [ LOG ]
-- 99,9 8E04AB5 [3ACF75E0]
01 99,9 [6207A1FC] [F71330BF] CRC32
02 99,9 [663B4E52] [850B8D60] CRC32
03 96,3 [2654B22F] [9AD76709] CRC32
04 99,9 [C2012752] [406B9602] CRC32
05 99,9 [80124466] [AD7A186E] CRC32
06 99,9 [430B488A] [4FAE5BB7] CRC32
07 99,9 [0EBDEC73] [C368AD4D] CRC32
08 99,9 [57F76299] [C7DFF981] CRC32
09 99,9 [8E32C331] [124F6158] CRC32
10 99,9 [4DC91795] [24CCDD19] CRC32
11 99,9 [263678F8] [E528A8B2] CRC32
12 99,9 [DCF3F6AD] [3B414BBD] CRC32
13 99,9 [E03CA68B] [F68849ED] CRC32
14 99,9 [2C42FA88] [F3F7E496] CRC32
15 99,9 [0915C671] [4E102C72] CRC32

foobar2000 1.2 / Dynamic Range Meter 1.1.1
log date: 2015-02-22 16:21:15

--
Analyzed: Rickie Lee Jones / Naked Songs (Live And Accoustic)
--

DR Peak RMS Duration Track
--
DR16 0.00 dB -18.64 dB 4:49 01-The Horses
DR15 0.00 dB -18.64 dB 5:14 02-Weasel And The White Boys Cool
DR13 -0.32 dB -16.50 dB 2:40 03-Altar Boy
DR16 0.00 dB -20.23 dB 4:47 04-It Must Be Love
DR14 0.00 dB -16.11 dB 3:29 05-Young Blood
DR16 0.00 dB -21.15 dB 4:25 06-The Last Chance Texaco
DR15 0.00 dB -21.18 dB 3:41 07-Skeletons
DR12 0.00 dB -16.89 dB 4:39 08-Magazine
DR13 0.00 dB -16.37 dB 6:54 09-Living It Up
DR14 0.00 dB -17.34 dB 4:59 10-We Belong Together
DR15 0.00 dB -19.40 dB 5:09 11-Coolsville
DR15 0.00 dB -20.05 dB 5:37 12-Flying Cowboys
DR14 0.00 dB -17.60 dB 4:05 13-Stewart's Coat
DR15 0.00 dB -17.96 dB 3:52 14-Chuck E.'s in Love
DR15 0.00 dB -19.02 dB 5:06 15-Autumn Leaves
--

Number of tracks: 15
Official DR value: DR14

Samplerate: 44100 Hz
Channels: 2
Bits per sample: 16
Bitrate: 639 kbps
Codec: FLAC

http://i67.fastpic.ru/big/2015/0224/39/64ddbee7701d5d8e78e0cd6b0296cf39.jpg

http://i57.fastpic.ru/big/2015/0224/6a/20a2c87afaad03713aaeb5fb0579d86a.jpg


DOWNLOAD LINKS:
Buy Premium To Support Me & Get Resumable Support & Max Speed


Links are Interchangeable - No Password - Single Extraction

Rickie Lee Jones - Naked Songs: Live and Acoustic (1995) [Re-Up] Fast Download


Ad2

 
 
 
Dear visitor, you went to the site as an unregistered user. We encourage you to register or enter the site under your name.
 
   
 
 (Votes #: 0)