2013Zone For Latest Downloads

 
     
 
Legal Downloads » Music » Vision Fields - IceSail (OST) (1992)
Menu
Home Applications
Games Movies
Music TV Shows
Torrents Graphics

Sitemap

RSS
 
Advanced Search
Last News
Site Info
Top Contributors:
  1    supper88 32766
  2    admin 32693
  3    Whisky 10080
  4    Shark_ 8911
  5    creativelivenew 8706
  6    whathesupa 2799
  7    candymypost 840
  8    hvnteam 629
  9    vuong87 3


Articles:
  This Hour: 0
  Today: 0
  This Month: 10
  All Time: 515561


Torrents:
  Today: 0
  Yesterday: 0
  All Time: 156684


Membership:
  Registered Today :0
  This Hour:0
  This Month:0
  Total:14
  Banned:1

{online}
{inform_torrent}
Friend:
We Recomend
Trend
Trend
Ad1

Search In Site

Music : Vision Fields - IceSail (OST) (1992)
 
http://i65.fastpic.ru/big/2015/0224/fa/03ca7a73045e50c76074a95042c7d5fa.jpg

Vision Fields - IceSail (OST) (1992)
EAC Rip | FLAC: Image+Cue+Log | 377 Mb | MP3 CBR 320 kbps | 167 Mb | Scans | Time: 51:38
Genre: Melodic Rock, Hi-Tech AOR, Soft Rock | Label: Music Plus | Cat.№: DSB 3160-2

"VISION FIELDS are for sure one of the most sought-after AOR band from Germany as they released some top rated albums so far. "Icesail" is their 1992-release and it contains again a brilliant mix of atmospheric Westcoast and catchy Hi-tech AOR. It starts with the super smooth "Mother Earth", that offers big carpet of keyboards, tasty guitar fills and such a great chorus."



Track Listing

01. Mother Earth (05:55)
02. Polar Light (04:56)
03. Nothern Lights (04:11)
04. IceSail (03:26)
05. Snowblind (03:45)
06. Captain's Dreaming (04:25)
07. Freedom (04:21)
08. Run To The Sea (04:53)
09. I'm Falling (03:49)
10. Guiding Light (04:38)
11. When I Fall In Love (04:36)
12. Harbour (02:38)

Produced by Mathias Müller, Rudolf Weber & Kim Bullard
Executive producer: Peter Hauke (Black Jack, Supermax, Nektar, Planet P Project ...)

Musicians

* Johan Daansen - guitars
* Dave Taggart, Thomas Barquee - vocals
* Mathias Muller - Guitars, bass, drum programming
* Oliver Hahn, Howard Scarr - keyboards
* Rudolph Weber - keyboards, drum programming
* Peter Schnell - drum programing
* Kim Bullard - various instrumentation

Notes

The band has recorded only three albums ... Very soulful music, on the first two of them especially!

VISION FIELDS - IceSail RARE and brilliant atmospheric Hi-Tech AOR

Like Metro - Jojo - I.C. Eyes - Visitors - Taboo - Shatoo - Lake
Style: Brilliant keyboard-driven Hi-tech AOR with great songs

Exact Audio Copy V1.0 beta 3 from 29. August 2011

EAC extraction logfile from 21. January 2015, 0:36

Vision Fields / Icesail

Used drive : PLEXTOR DVDR PX-716A Adapter: 0 ID: 0

Read mode : Secure
Utilize accurate stream : Yes
Defeat audio cache : Yes
Make use of C2 pointers : No

Read offset correction : 30
Overread into Lead-In and Lead-Out : Yes
Fill up missing offset samples with silence : Yes
Delete leading and trailing silent blocks : No
Null samples used in CRC calculations : Yes
Used interface
: Installed external ASPI interface

Used output format : User Defined Encoder
Selected bitrate : 896 kBit/s
Quality
: High
Add ID3 tag : No
Command line compressor : C:\Program Files (x86)\Exact Audio Copy\Flac\flac.exe
Additional command line options : -V -8 -T "Date=%year%" -T "Genre=%genre%" %source%

TOC of the extracted CD Track | Start | Length | Start sector | End sector
-----------
1 | 0:00.33 | 5:55.20 | 33 | 26677
2 | 5:55.53 | 4:56.67 | 26678 | 48944
3 | 10:52.45 | 4:11.08 | 48945 | 67777
4 | 15:03.53 | 3:26.22 | 67778 | 83249
5 | 18:30.00 | 3:45.58 | 83250 | 100182
6 | 22:15.58 | 4:25.57 | 100183 | 120114
7 | 26:41.40 | 4:21.33 | 120115 | 139722
8 | 31:02.73 | 4:52.72 | 139723 | 161694
9 | 35:55.70 | 3:48.73 | 161695 | 178867
10 | 39:44.68 | 4:38.17 | 178868 | 199734
11 | 44:23.10 | 4:36.63 | 199735 | 220497
12 | 48:59.73 | 2:37.72 | 220498 | 232344

Range status and errors

Selected range Filename E:\Vision Fields - 3 Albums\1992 Ice Sail - Music Performanced By Vision Filds\Vision Fields - Icesail.wav Peak level 100.0 %
Extraction speed 3.8 X
Range quality 100.0 %
Test CRC A33F0D70
Copy CRC A33F0D70
Copy OK

No errors occurred


AccurateRip summary

Track 1 accurately ripped (confidence 2) [E295E6B2] (AR v1)
Track 2 accurately ripped (confidence 2) [50D11857] (AR v1)
Track 3 accurately ripped (confidence 2) D54D259 (AR v1)
Track 4 accurately ripped (confidence 2) [0E49C252] (AR v1)
Track 5 accurately ripped (confidence 2) [A5CD2D15] (AR v1)
Track 6 accurately ripped (confidence 2) [272DF6F8] (AR v1)
Track 7 accurately ripped (confidence 2) B8096FC (AR v1)
Track 8 accurately ripped (confidence 2) [281735EB] (AR v1)
Track 9 accurately ripped (confidence 2) [C0D22598] (AR v1)
Track 10 accurately ripped (confidence 2) [F9A6315C] (AR v1)
Track 11 accurately ripped (confidence 2) [547B35FB] (AR v1)
Track 12 accurately ripped (confidence 2) [DFA36B5B] (AR v1)

All tracks accurately ripped

End of status report

==== Log checksum 6C942B0D40A31DF122CEFBC6E39547677A5B36B5651D48E1DA154E695A35F372 ====

Many thanks to the original uploader: Konstantin_slash
DOWNLOAD LINKS:
Buy Premium To Support Me & Get Resumable Support & Max Speed


Links are Interchangeable - No Password - Single Extraction

Vision Fields - IceSail (OST) (1992) Fast Download


Ad2

 
 
 
Dear visitor, you went to the site as an unregistered user. We encourage you to register or enter the site under your name.
 
   
 
 (Votes #: 0)