2013Zone For Latest Downloads

 
     
 
Legal Downloads » Music » Nona Hendryx - The Art Of Defense (1984) [2012, Remastered & Expanded Edition]
Menu
Home Applications
Games Movies
Music TV Shows
Torrents Graphics

Sitemap

RSS
 
Advanced Search
Last News
Site Info
Top Contributors:
  1    supper88 32766
  2    admin 32693
  3    Whisky 10080
  4    Shark_ 8911
  5    creativelivenew 8706
  6    whathesupa 2799
  7    candymypost 840
  8    hvnteam 629
  9    vuong87 3


Articles:
  This Hour: 0
  Today: 0
  This Month: 10
  All Time: 515561


Torrents:
  Today: 0
  Yesterday: 0
  All Time: 156684


Membership:
  Registered Today :0
  This Hour:0
  This Month:0
  Total:14
  Banned:1

{online}
{inform_torrent}
Friend:
We Recomend
Trend
Trend
Ad1

Search In Site

Music : Nona Hendryx - The Art Of Defense (1984) [2012, Remastered & Expanded Edition]
 
http://i64.fastpic.ru/big/2015/0225/d2/9970fcbe9dedc5e1939f51d20ecd04d2.jpg

Nona Hendryx - The Art Of Defense (1984) [2012, Remastered & Expanded Edition]
R&B, Soul/Funk, Pop/Rock | EAC Rip | FLAC, Img+CUE + LOG + Full Scans-600dpi (JPEG) | 74:33 Min | 531,56 Mb
Label: Funkytowngrooves / RCA Records (USA) | Released: 2012, February, 27

"
It is amazing how polarizing (for listeners) Bill Laswell's Material side projects can be. They are either fresh and inventive or stale and uninspired. Unfortunately, Nona Hendryx's 1984 Material-produced album The Art of Defense falls into the latter category - another case of some very talented folks making a very bland record.
"

http://i66.fastpic.ru/big/2015/0225/3f/b1362ab3f0f358e13bcc91fd47f3f43f.jpg

http://i64.fastpic.ru/big/2015/0225/39/ed0756283e491478f833e6e235c75639.jpg


Release of the album: 1984 [LP RCA, Cat.# AFL1-4999, USA]
Release of this CD: 2012, February, 27 [CD Funkytowngrooves (USA), Cat.# FTG-276 / EAN: 0851903003199]
℗ 2012 Sony Music Entertainment, This compilation © 2012 Funkytowngrooves USA
Distributed by Funkytowngrooves USA.
Manufactured by Sony Music Entertainment

Note: Remastered from the Original Master Tapes with 7 Bonus Tracks

Producers: Material and Nona Hendryx
Photography By [Cover] - Arthur Tress
Photography By nner Sleeve - Nick Sangiamo
Album & Cover Concept: Nona Hendryx

Backing Vocals - Afrika Bambaataa, Amad Henderson, B.J. Nelson, Benny Diggs, Cherise Collins, Dolette McDonald (The Daughter), Fonzi Thornton, Fred Fowler (Shango), Kevin Owens, Mr. Biggs, Nona Hendryx, Patrice Collins, Ray Simpson


Tracklist:

01. I Sweat (Going Through The Motions) (06:13)
(Nona Hendryx)
02. Soft Targets (04:25)
(Nona Hendryx)
03. The Life (06:33)
(Nona Hendryx, Kevan Staples)
04. To The Bone (05:17)
(Nona Hendryx)
05. Electricity (03:51)
(Nona Hendryx, Dan Hartman)
06. Ghost Love (04:16)
(Nona Hendryx, Trevor Gale, Kenneth Hairston)
07. I Want You (04:21)
(Nona Hendryx, Ellen Foley, Jeffrey Kent)

Bonus Tracks:

08. I Sweat (Going Through The Motions) (Dance Remix) (05:43)
(Nona Hendryx)
09. I Sweat (Going Through The Motions) (Single Version) (03:54)
(Nona Hendryx)
10. I Sweat (Going Through The Motions) (Instrumental) (04:42)
(Nona Hendryx)
11. To The Bone (12" Version) (06:16)
(Nona Hendryx)
12. To The Bone (Pygmy Dub Mix - Parts I & II) (10:17)
(Nona Hendryx)
13. Heart Of A Woman (03:43)
(Tom Scott, Candy Parton)
14. Heart Of A Woman (Extended Remix) (05:02)
(Tom Scott, Candy Parton)

Exact Audio Copy V1.0 beta 3 from 29. August 2011

EAC extraction logfile from 7. April 2012, 10:57

Nona Hendryx / The Art Of Defense (Expanded Edition)

Used drive : ATAPI DVD DW 8X16X8X16 Adapter: 0 ID: 2

Read mode : Secure
Utilize accurate stream : Yes
Defeat audio cache : Yes
Make use of C2 pointers : No

Read offset correction : 618
Overread into Lead-In and Lead-Out : No
Fill up missing offset samples with silence : Yes
Delete leading and trailing silent blocks : No
Null samples used in CRC calculations : Yes
Used interface
: Native Win32 interface for Win NT & 2000

Used output format : Internal WAV Routines
Sample format : 44.100 Hz; 16 Bit; Stereo

TOC of the extracted CD Track | Start | Length | Start sector | End sector
-----------
1 | 0:00.43 | 6:13.44 | 43 | 28061
2 | 6:14.12 | 4:25.09 | 28062 | 47945
3 | 10:39.21 | 6:33.08 | 47946 | 77428
4 | 17:12.29 | 5:17.59 | 77429 | 101262
5 | 22:30.13 | 3:51.71 | 101263 | 118658
6 | 26:22.09 | 4:16.37 | 118659 | 137895
7 | 30:38.46 | 4:21.37 | 137896 | 157507
8 | 35:00.08 | 5:43.13 | 157508 | 183245
9 | 40:43.21 | 3:54.18 | 183246 | 200813
10 | 44:37.39 | 4:42.01 | 200814 | 221964
11 | 49:19.40 | 6:16.40 | 221965 | 250204
12 | 55:36.05 | 10:17.37 | 250205 | 296516
13 | 65:53.42 | 3:43.72 | 296517 | 313313
14 | 69:37.39 | 5:02.63 | 313314 | 336026

Range status and errors

Selected range Filename C:\BlondStyle\The Art Of Defense (Expanded Edition).wav Peak level 100.0 %
Extraction speed 2.6 X
Range quality 99.9 %
Test CRC 84C154D0
Copy CRC 84C154D0
Copy OK

No errors occurred


AccurateRip summary

Track 1 not present in database
Track 2 not present in database
Track 3 not present in database
Track 4 not present in database
Track 5 not present in database
Track 6 not present in database
Track 7 not present in database
Track 8 not present in database
Track 9 not present in database
Track 10 not present in database
Track 11 not present in database
Track 12 not present in database
Track 13 not present in database
Track 14 not present in database

None of the tracks are present in the AccurateRip database

End of status report

==== Log checksum 75382A20D1D029E04E4D5EFDD2F6086031921CAB4C5A71425310F7A700985270 ====

-
Statistics for: The Art Of Defense (Expanded Edition).wav
Number of Samples: 197583876
- left right

Peak value: -0.00 dB --- -0.05 dB
Avg RMS: -11.91 dB --- -11.51 dB
DR channel: 10.05 dB --- 9.59 dB
-

Official DR value: DR10
=
DOWNLOAD LINKS:
Buy Premium To Support Me & Get Resumable Support & Max Speed


Links are Interchangeable - No Password - Single Extraction

Nona Hendryx - The Art Of Defense (1984) [2012, Remastered & Expanded Edition] Fast Download


Ad2

 
 
 
Dear visitor, you went to the site as an unregistered user. We encourage you to register or enter the site under your name.
 
   
 
 (Votes #: 0)