2013Zone For Latest Downloads

 
     
 
Legal Downloads » Music » Frank Zappa - You Can't Do That On Stage Anymore, Vol. 1 (1988) [2CD] {1995 Ryko Remaster Complete Series}
Menu
Home Applications
Games Movies
Music TV Shows
Torrents Graphics

Sitemap

RSS
 
Advanced Search
Last News
Site Info
Top Contributors:
  1    supper88 32766
  2    admin 32725
  3    Whisky 10080
  4    Shark_ 8911
  5    creativelivenew 8706
  6    whathesupa 2799
  7    candymypost 840
  8    hvnteam 629
  9    vuong87 3


Articles:
  This Hour: 0
  Today: 0
  This Month: 2
  All Time: 515495


Torrents:
  Today: 0
  Yesterday: 0
  All Time: 156680


Membership:
  Registered Today :0
  This Hour:0
  This Month:0
  Total:14
  Banned:1

{online}
{inform_torrent}
Friend:
Full Download Scripts
Torrent Download
Trend
Trend

Search In Site

Music : Frank Zappa - You Can't Do That On Stage Anymore, Vol. 1 (1988) [2CD] {1995 Ryko Remaster Complete Series}
 

http://i57.fastpic.ru/big/2015/0302/49/f8e3af396d7b0a4f88856f3aee083e49.jpg
Frank Zappa - You Can't Do That On Stage Anymore, Vol. 1 (1988) [2CD] {1995 Ryko Remaster Complete Series}
EAC rip (secure mode) | FLAC (tracks)+CUE+LOG -> 916 Mb | MP3 @320 -> 328 Mb
Full Artwork @ 600 dpi (png) -> 239 Mb | 5% repair rar
© 1995 Rykodisc / The Zappa Family Trust | RCD 10561/62
Rock / Experimental Rock / Art Rock

"Official Release #51. While most of the other volumes in the You Can't Do That on Stage Anymore series would be compiled around loose themes (whether topical or historical), this first volume contained a little of everything for everyone. The material spans most of Frank Zappa's career, from 1969 live recordings by the original Mothers of Invention (the medley "Let's Make the Water Turn Black/Harry, You're a Beast/The Orange County Lumber Truck" constitutes a highlight) up to the 1984 tour, with about every incarnation of his group in-between."

http://i65.fastpic.ru/big/2015/0302/55/070ff9c32c2bc5e5b1ebc2ea8364c055.jpg

"The music is also quite varied, but focuses mainly on songs, with a few instrumentals and moments of live craziness thrown in for good measure. Special points of interest include "Once Upon a Time," a segment from the lost 1970-1971 "Sofa Suite," which provides important elements of conceptual continuity; a performance of "The Groupie Routine" from the same period, which when compared to the previously available version of this Flo & Eddie comedy routine (as "Do You Like My New Car?" on Fillmore East, June 1971) shows how much improvisation the singers poured in their parts; and examples of stage humor ("Ruthie-Ruthie," "Diseases of the Band"). But the real treat is the complete performance of the suite "Don't Eat the Yellow Snow" from 1979, replete with audience participation (spontaneous poetry!) and the finale "Rollo," not officially released before. You Can't Do That on Stage Anymore, Vol. 1 addresses both the dedicated fan and the casual listener."


http://i64.fastpic.ru/big/2015/0302/de/2151f05ba1a3d730f1fcc9a6380778de.jpg


tracklist:
CD1

01 - The Florida Airport Tape
02 - Once Upon A Time
03 - Sofa #1
04 - The Mammy Anthem
05 - You Didn't Try To Call Me
06 - Diseases Of The Band
07 - Tryin' To Grow A Chin
08 - Let's Make The Water Turn Black - Harry, You're A Beast - The Orange County Lumber Truck
09 - The Groupie Routine
10 - Ruthie-Ruthie
11 - Babbette
12 - I'm The Slime
13 - Big Swifty
14 - Don't Eat The Yellow Snow

CD2
01 - Plastic People
02 - The Torture Never Stops
03 - Fine Girl
04 - Zomby Woof
05 - Sweet Leilani
06 - Oh No
07 - Be In My Video
08 - The Deathless Horsie
09 - The Dangerous Kitchen
10 - Dumb All Over
11 - Heavenly Bank Account
12 - Suicide Chump
13 - Tell Me You Love Me
14 - Sofa #2

Exact Audio Copy V1.0 beta 4 from 7. December 2014

EAC extraction logfile from 26. February 2015, 20:08

Frank Zappa / You Can't Do That On Stage Anymore, Vol. 1 (CD1)

Used drive : TSSTcorpCDDVDW SE-208DB Adapter: 1 ID: 1

Read mode : Secure
Utilize accurate stream : Yes
Defeat audio cache : Yes
Make use of C2 pointers : No

Read offset correction : 6
Overread into Lead-In and Lead-Out : No
Fill up missing offset samples with silence : Yes
Delete leading and trailing silent blocks : No
Null samples used in CRC calculations : Yes
Used interface
: Native Win32 interface for Win NT & 2000
Gap handling
: Appended to previous track

Used output format : User Defined Encoder
Selected bitrate : 1024 kBit/s
Quality
: High
Add ID3 tag : No
Command line compressor : C:\Program Files (x86)\FLAC Frontend\tools\flac.exe
Additional command line options : -8 -V -T "ARTIST=%artist%" -T "TITLE=%title%" -T "ALBUM=%albumtitle%" -T "DATE=%year%" -T "TRACKNUMBER=%tracknr%" -T "TOTALTRACKS=%numtracks%" -T "GENRE=%genre%" -T "ALBUMARTIST=%albumartist%" -T "ALBUM ARTIST=%albumartist%" -T "COMMENT=EAC Secure Mode, Test & Copy, AccurateRip, FLAC -8" %source%

TOC of the extracted CD Track | Start | Length | Start sector | End sector
-----------
1 | 0:00.00 | 1:03.65 | 0 | 4789
2 | 1:03.65 | 4:37.52 | 4790 | 25616
3 | 5:41.42 | 2:53.03 | 25617 | 38594
4 | 8:34.45 | 5:41.15 | 38595 | 64184
5 | 14:15.60 | 3:39.27 | 64185 | 80636
6 | 17:55.12 | 2:22.15 | 80637 | 91301
7 | 20:17.27 | 3:44.03 | 91302 | 108104
8 | 24:01.30 | 3:27.72 | 108105 | 123701
9 | 27:29.27 | 5:41.10 | 123702 | 149286
10 | 33:10.37 | 2:57.23 | 149287 | 162584
11 | 36:07.60 | 3:35.67 | 162585 | 178776
12 | 39:43.52 | 3:13.15 | 178777 | 193266
13 | 42:56.67 | 8:46.65 | 193267 | 232781
14 | 51:43.57 | 20:16.03 | 232782 | 323984

Track 1 Filename D:\_EAC\Frank Zappa - You Can't Do That On Stage Anymore, Vol. 1 (1988) [2CD] {1995 Ryko Remaster Complete Series}\CD1\01 - The Florida Airport Tape.wav Pre-gap length 0:00:02.00 Peak level 97.9 %
Extraction speed 0.7 X
Track quality 100.0 %
Test CRC BCE0FAEF
Copy CRC BCE0FAEF
Accurately ripped (confidence 22) [88AEAAD1] (AR v2)
Copy OK

Track 2 Filename D:\_EAC\Frank Zappa - You Can't Do That On Stage Anymore, Vol. 1 (1988) [2CD] {1995 Ryko Remaster Complete Series}\CD1\02 - Once Upon A Time.wav Peak level 82.6 %
Extraction speed 1.1 X
Track quality 100.0 %
Test CRC 3028F7A4
Copy CRC 3028F7A4
Accurately ripped (confidence 22) [3AAA8AA0] (AR v2)
Copy OK

Track 3 Filename D:\_EAC\Frank Zappa - You Can't Do That On Stage Anymore, Vol. 1 (1988) [2CD] {1995 Ryko Remaster Complete Series}\CD1\03 - Sofa #1.wav Peak level 89.1 %
Extraction speed 1.1 X
Track quality 100.0 %
Test CRC 6C9209E8
Copy CRC 6C9209E8
Accurately ripped (confidence 22) [23E16AA2] (AR v2)
Copy OK

Track 4 Filename D:\_EAC\Frank Zappa - You Can't Do That On Stage Anymore, Vol. 1 (1988) [2CD] {1995 Ryko Remaster Complete Series}\CD1\04 - The Mammy Anthem.wav Peak level 95.3 %
Extraction speed 1.3 X
Track quality 100.0 %
Test CRC 900905F4
Copy CRC 900905F4
Accurately ripped (confidence 22) [1AD13CBB] (AR v2)
Copy OK

Track 5 Filename D:\_EAC\Frank Zappa - You Can't Do That On Stage Anymore, Vol. 1 (1988) [2CD] {1995 Ryko Remaster Complete Series}\CD1\05 - You Didn't Try To Call Me.wav Peak level 100.0 %
Extraction speed 1.4 X
Track quality 100.0 %
Test CRC 0EA3F091
Copy CRC 0EA3F091
Accurately ripped (confidence 22) [825DECAA] (AR v2)
Copy OK

Track 6 Filename D:\_EAC\Frank Zappa - You Can't Do That On Stage Anymore, Vol. 1 (1988) [2CD] {1995 Ryko Remaster Complete Series}\CD1\06 - Diseases Of The Band.wav Peak level 79.4 %
Extraction speed 1.3 X
Track quality 100.0 %
Test CRC D0B9831A
Copy CRC D0B9831A
Accurately ripped (confidence 21) B465FFE (AR v2)
Copy OK

Track 7 Filename D:\_EAC\Frank Zappa - You Can't Do That On Stage Anymore, Vol. 1 (1988) [2CD] {1995 Ryko Remaster Complete Series}\CD1\07 - Tryin' To Grow A Chin.wav Peak level 91.6 %
Extraction speed 1.5 X
Track quality 100.0 %
Test CRC 248D0B7C
Copy CRC 248D0B7C
Accurately ripped (confidence 22) [F0A2B07A] (AR v2)
Copy OK

Track 8 Filename D:\_EAC\Frank Zappa - You Can't Do That On Stage Anymore, Vol. 1 (1988) [2CD] {1995 Ryko Remaster Complete Series}\CD1\08 - Let's Make The Water Turn Black - Harry, You're A Beast - The Orange County Lumber Truck.wav Peak level 100.0 %
Extraction speed 1.5 X
Track quality 100.0 %
Test CRC E7E6682E
Copy CRC E7E6682E
Accurately ripped (confidence 22) [5D6F0313] (AR v2)
Copy OK

Track 9 Filename D:\_EAC\Frank Zappa - You Can't Do That On Stage Anymore, Vol. 1 (1988) [2CD] {1995 Ryko Remaster Complete Series}\CD1\09 - The Groupie Routine.wav Peak level 93.3 %
Extraction speed 1.7 X
Track quality 100.0 %
Test CRC 9205B210
Copy CRC 9205B210
Accurately ripped (confidence 21) [77F56403] (AR v2)
Copy OK

Track 10 Filename D:\_EAC\Frank Zappa - You Can't Do That On Stage Anymore, Vol. 1 (1988) [2CD] {1995 Ryko Remaster Complete Series}\CD1\10 - Ruthie-Ruthie.wav Peak level 84.0 %
Extraction speed 1.3 X
Track quality 99.9 %
Test CRC C31C6F05
Copy CRC C31C6F05
Accurately ripped (confidence 22) [F9A5EC90] (AR v2)
Copy OK

Track 11 Filename D:\_EAC\Frank Zappa - You Can't Do That On Stage Anymore, Vol. 1 (1988) [2CD] {1995 Ryko Remaster Complete Series}\CD1\11 - Babbette.wav Peak level 95.5 %
Extraction speed 1.6 X
Track quality 100.0 %
Test CRC 749E4405
Copy CRC 749E4405
Accurately ripped (confidence 22) [FDF4C245] (AR v2)
Copy OK

Track 12 Filename D:\_EAC\Frank Zappa - You Can't Do That On Stage Anymore, Vol. 1 (1988) [2CD] {1995 Ryko Remaster Complete Series}\CD1\12 - I'm The Slime.wav Peak level 92.4 %
Extraction speed 1.4 X
Track quality 99.9 %
Test CRC 8A9A813F
Copy CRC 8A9A813F
Accurately ripped (confidence 21) [45376C2A] (AR v2)
Copy OK

Track 13 Filename D:\_EAC\Frank Zappa - You Can't Do That On Stage Anymore, Vol. 1 (1988) [2CD] {1995 Ryko Remaster Complete Series}\CD1\13 - Big Swifty.wav Peak level 94.3 %
Extraction speed 1.8 X
Track quality 99.9 %
Test CRC 3FE1FA91
Copy CRC 3FE1FA91
Accurately ripped (confidence 20) 437CEAE (AR v2)
Copy OK

Track 14 Filename D:\_EAC\Frank Zappa - You Can't Do That On Stage Anymore, Vol. 1 (1988) [2CD] {1995 Ryko Remaster Complete Series}\CD1\14 - Don't Eat The Yellow Snow.wav Peak level 100.0 %
Extraction speed 2.2 X
Track quality 100.0 %
Test CRC 7E067FAE
Copy CRC 7E067FAE
Accurately ripped (confidence 21) [E32FB2D3] (AR v2)
Copy OK

All tracks accurately ripped

No errors occurred

End of status report

==== Log checksum B7A785CC4EFF6A703DE8B7DFF4CC905B6795E8344425F4733E2D1EBCA980C785 ====

Exact Audio Copy V1.0 beta 4 from 7. December 2014

EAC extraction logfile from 26. February 2015, 21:36

Frank Zappa / You Can't Do That On Stage Anymore, Vol. 1 (CD2)

Used drive : TSSTcorpCDDVDW SE-208DB Adapter: 1 ID: 1

Read mode : Secure
Utilize accurate stream : Yes
Defeat audio cache : Yes
Make use of C2 pointers : No

Read offset correction : 6
Overread into Lead-In and Lead-Out : No
Fill up missing offset samples with silence : Yes
Delete leading and trailing silent blocks : No
Null samples used in CRC calculations : Yes
Used interface
: Native Win32 interface for Win NT & 2000
Gap handling
: Appended to previous track

Used output format : User Defined Encoder
Selected bitrate : 1024 kBit/s
Quality
: High
Add ID3 tag : No
Command line compressor : C:\Program Files (x86)\FLAC Frontend\tools\flac.exe
Additional command line options : -8 -V -T "ARTIST=%artist%" -T "TITLE=%title%" -T "ALBUM=%albumtitle%" -T "DATE=%year%" -T "TRACKNUMBER=%tracknr%" -T "TOTALTRACKS=%numtracks%" -T "GENRE=%genre%" -T "ALBUMARTIST=%albumartist%" -T "ALBUM ARTIST=%albumartist%" -T "COMMENT=EAC Secure Mode, Test & Copy, AccurateRip, FLAC -8" %source%

TOC of the extracted CD Track | Start | Length | Start sector | End sector
-----------
1 | 0:00.00 | 4:38.47 | 0 | 20896
2 | 4:38.47 | 15:48.15 | 20897 | 92011
3 | 20:26.62 | 2:55.05 | 92012 | 105141
4 | 23:21.67 | 5:39.00 | 105142 | 130566
5 | 29:00.67 | 2:39.05 | 130567 | 142496
6 | 31:39.72 | 4:34.23 | 142497 | 163069
7 | 36:14.20 | 3:29.65 | 163070 | 178809
8 | 39:44.10 | 5:29.07 | 178810 | 203491
9 | 45:13.17 | 1:49.50 | 203492 | 211716
10 | 47:02.67 | 4:20.05 | 211717 | 231221
11 | 51:22.72 | 4:05.53 | 231222 | 249649
12 | 55:28.50 | 4:55.72 | 249650 | 271846
13 | 60:24.47 | 2:09.03 | 271847 | 281524
14 | 62:33.50 | 3:00.52 | 281525 | 295076

Track 1 Filename D:\_EAC\Frank Zappa - You Can't Do That On Stage Anymore, Vol. 1 (1988) [2CD] {1995 Ryko Remaster Complete Series}\CD2\01 - Plastic People.wav Pre-gap length 0:00:02.00 Peak level 89.3 %
Extraction speed 2.3 X
Track quality 100.0 %
Test CRC FA544AA6
Copy CRC FA544AA6
Accurately ripped (confidence 5) [183AB795] (AR v2)
Copy OK

Track 2 Filename D:\_EAC\Frank Zappa - You Can't Do That On Stage Anymore, Vol. 1 (1988) [2CD] {1995 Ryko Remaster Complete Series}\CD2\02 - The Torture Never Stops.wav Peak level 96.6 %
Extraction speed 3.0 X
Track quality 99.9 %
Test CRC 84A73815
Copy CRC 84A73815
Accurately ripped (confidence 5) [DB1560A1] (AR v2)
Copy OK

Track 3 Filename D:\_EAC\Frank Zappa - You Can't Do That On Stage Anymore, Vol. 1 (1988) [2CD] {1995 Ryko Remaster Complete Series}\CD2\03 - Fine Girl.wav Peak level 100.0 %
Extraction speed 3.1 X
Track quality 100.0 %
Test CRC 26AE3C24
Copy CRC 26AE3C24
Accurately ripped (confidence 5) [F8032CF3] (AR v2)
Copy OK

Track 4 Filename D:\_EAC\Frank Zappa - You Can't Do That On Stage Anymore, Vol. 1 (1988) [2CD] {1995 Ryko Remaster Complete Series}\CD2\04 - Zomby Woof.wav Peak level 91.4 %
Extraction speed 3.3 X
Track quality 99.9 %
Test CRC 2282B39A
Copy CRC 2282B39A
Accurately ripped (confidence 5) [4F13C66A] (AR v2)
Copy OK

Track 5 Filename D:\_EAC\Frank Zappa - You Can't Do That On Stage Anymore, Vol. 1 (1988) [2CD] {1995 Ryko Remaster Complete Series}\CD2\05 - Sweet Leilani.wav Peak level 83.8 %
Extraction speed 3.3 X
Track quality 100.0 %
Test CRC 6581525F
Copy CRC 6581525F
Accurately ripped (confidence 5) [99801990] (AR v2)
Copy OK

Track 6 Filename D:\_EAC\Frank Zappa - You Can't Do That On Stage Anymore, Vol. 1 (1988) [2CD] {1995 Ryko Remaster Complete Series}\CD2\06 - Oh No.wav Peak level 50.4 %
Extraction speed 3.8 X
Track quality 100.0 %
Test CRC AEA174FB
Copy CRC AEA174FB
Accurately ripped (confidence 5) [AB6FA136] (AR v2)
Copy OK

Track 7 Filename D:\_EAC\Frank Zappa - You Can't Do That On Stage Anymore, Vol. 1 (1988) [2CD] {1995 Ryko Remaster Complete Series}\CD2\07 - Be In My Video.wav Peak level 88.2 %
Extraction speed 3.8 X
Track quality 100.0 %
Test CRC 88732619
Copy CRC 88732619
Accurately ripped (confidence 5) [712421F8] (AR v2)
Copy OK

Track 8 Filename D:\_EAC\Frank Zappa - You Can't Do That On Stage Anymore, Vol. 1 (1988) [2CD] {1995 Ryko Remaster Complete Series}\CD2\08 - The Deathless Horsie.wav Peak level 86.8 %
Extraction speed 4.2 X
Track quality 100.0 %
Test CRC 2793BB9C
Copy CRC 2793BB9C
Accurately ripped (confidence 5) [C0D3C440] (AR v2)
Copy OK

Track 9 Filename D:\_EAC\Frank Zappa - You Can't Do That On Stage Anymore, Vol. 1 (1988) [2CD] {1995 Ryko Remaster Complete Series}\CD2\09 - The Dangerous Kitchen.wav Peak level 71.0 %
Extraction speed 3.5 X
Track quality 100.0 %
Test CRC BB13558B
Copy CRC BB13558B
Accurately ripped (confidence 5) [5FBAF139] (AR v2)
Copy OK

Track 10 Filename D:\_EAC\Frank Zappa - You Can't Do That On Stage Anymore, Vol. 1 (1988) [2CD] {1995 Ryko Remaster Complete Series}\CD2\10 - Dumb All Over.wav Peak level 84.9 %
Extraction speed 4.3 X
Track quality 100.0 %
Test CRC CC95868A
Copy CRC CC95868A
Accurately ripped (confidence 5) [A4905CBA] (AR v2)
Copy OK

Track 11 Filename D:\_EAC\Frank Zappa - You Can't Do That On Stage Anymore, Vol. 1 (1988) [2CD] {1995 Ryko Remaster Complete Series}\CD2\11 - Heavenly Bank Account.wav Peak level 83.0 %
Extraction speed 4.4 X
Track quality 100.0 %
Test CRC 4B31EB9B
Copy CRC 4B31EB9B
Accurately ripped (confidence 5) [6C236337] (AR v2)
Copy OK

Track 12 Filename D:\_EAC\Frank Zappa - You Can't Do That On Stage Anymore, Vol. 1 (1988) [2CD] {1995 Ryko Remaster Complete Series}\CD2\12 - Suicide Chump.wav Peak level 97.9 %
Extraction speed 4.6 X
Track quality 100.0 %
Test CRC 5EB6E30B
Copy CRC 5EB6E30B
Accurately ripped (confidence 5) [94A17EAE] (AR v2)
Copy OK

Track 13 Filename D:\_EAC\Frank Zappa - You Can't Do That On Stage Anymore, Vol. 1 (1988) [2CD] {1995 Ryko Remaster Complete Series}\CD2\13 - Tell Me You Love Me.wav Peak level 85.6 %
Extraction speed 4.1 X
Track quality 100.0 %
Test CRC 6D1CC657
Copy CRC 6D1CC657
Accurately ripped (confidence 5) [95D98646] (AR v2)
Copy OK

Track 14 Filename D:\_EAC\Frank Zappa - You Can't Do That On Stage Anymore, Vol. 1 (1988) [2CD] {1995 Ryko Remaster Complete Series}\CD2\14 - Sofa #2.wav Peak level 90.4 %
Extraction speed 4.4 X
Track quality 100.0 %
Test CRC 22A0CD86
Copy CRC 22A0CD86
Accurately ripped (confidence 5) [8A217C46] (AR v2)
Copy OK

All tracks accurately ripped

No errors occurred

End of status report

==== Log checksum 7EDB6F386FDCB68B5D0404F6E9B260862525D9A9CB126F101CB89010E8E305FB ====

http://i58.fastpic.ru/big/2015/0302/6f/70b33552feda1fec0fe049ee234ed16f.jpg

http://i63.fastpic.ru/big/2015/0302/55/471024c890e41698910adc5fa7d82355.jpg

DOWNLOAD LINKS:
Buy Premium To Support Me & Get Resumable Support & Max Speed

Uploaded.net:
szgpp.zappaonstageanymorev1ARTWORK.part1.rar
szgpp.zappaonstageanymorev1ARTWORK.part2.rar
szgpp.zappaonstageanymorev1cd1.part1.rar
szgpp.zappaonstageanymorev1cd1.part2.rar
szgpp.zappaonstageanymorev1cd1.part3.rar
szgpp.zappaonstageanymorev1cd1MP.rar
szgpp.zappaonstageanymorev1cd2.part1.rar
szgpp.zappaonstageanymorev1cd2.part2.rar
szgpp.zappaonstageanymorev1cd2.part3.rar
szgpp.zappaonstageanymorev1cd2MP.rar

Rapidgator.net:
szgpp.zappaonstageanymorev1ARTWORK.part1.rar.html
szgpp.zappaonstageanymorev1ARTWORK.part2.rar.html
szgpp.zappaonstageanymorev1cd1.part1.rar.html
szgpp.zappaonstageanymorev1cd1.part2.rar.html
szgpp.zappaonstageanymorev1cd1.part3.rar.html
szgpp.zappaonstageanymorev1cd1MP.rar.html
szgpp.zappaonstageanymorev1cd2.part1.rar.html
szgpp.zappaonstageanymorev1cd2.part2.rar.html
szgpp.zappaonstageanymorev1cd2.part3.rar.html
szgpp.zappaonstageanymorev1cd2MP.rar.html

Uploadable.ch:
szgpp.zappaonstageanymorev1ARTWORK.part1.rar
szgpp.zappaonstageanymorev1ARTWORK.part2.rar
szgpp.zappaonstageanymorev1cd1.part1.rar
szgpp.zappaonstageanymorev1cd1.part2.rar
szgpp.zappaonstageanymorev1cd1.part3.rar
szgpp.zappaonstageanymorev1cd1MP.rar
szgpp.zappaonstageanymorev1cd2.part1.rar
szgpp.zappaonstageanymorev1cd2.part2.rar
szgpp.zappaonstageanymorev1cd2.part3.rar
szgpp.zappaonstageanymorev1cd2MP.rar

Turbobit.net:
szgpp.zappaonstageanymorev1ARTWORK.part1.rar.html
szgpp.zappaonstageanymorev1ARTWORK.part2.rar.html
szgpp.zappaonstageanymorev1cd1.part1.rar.html
szgpp.zappaonstageanymorev1cd1.part2.rar.html
szgpp.zappaonstageanymorev1cd1.part3.rar.html
szgpp.zappaonstageanymorev1cd1MP.rar.html
szgpp.zappaonstageanymorev1cd2.part1.rar.html
szgpp.zappaonstageanymorev1cd2.part2.rar.html
szgpp.zappaonstageanymorev1cd2.part3.rar.html
szgpp.zappaonstageanymorev1cd2MP.rar.html

Links are Interchangeable - No Password - Single Extraction

Frank Zappa - You Can't Do That On Stage Anymore, Vol. 1 (1988) [2CD] {1995 Ryko Remaster Complete Series} Fast Download



 
 
 
Dear visitor, you went to the site as an unregistered user. We encourage you to register or enter the site under your name.
 
   
 
 (Votes #: 0)