2013Zone For Latest Downloads

 
     
 
Legal Downloads » Music » Kashif - Kashif (1983) [2012, Remastered & Expanded Edition]
Menu
Home Applications
Games Movies
Music TV Shows
Torrents Graphics

Sitemap

RSS
 
Advanced Search
Last News
Site Info
Top Contributors:
  1    supper88 32766
  2    admin 32693
  3    Whisky 10080
  4    Shark_ 8911
  5    creativelivenew 8706
  6    whathesupa 2799
  7    candymypost 840
  8    hvnteam 629
  9    vuong87 3


Articles:
  This Hour: 10
  Today: 10
  This Month: 62
  All Time: 515562


Torrents:
  Today: 0
  Yesterday: 10
  All Time: 156685


Membership:
  Registered Today :0
  This Hour:0
  This Month:0
  Total:14
  Banned:1

{online}
{inform_torrent}
Friend:
We Recomend
Trend
Trend
XsAd

Search In Site

Music : Kashif - Kashif (1983) [2012, Remastered & Expanded Edition]
 
http://i58.fastpic.ru/big/2015/0307/0e/df5259619dbd18503d3ca679dd8b830e.jpg

Kashif - Kashif (1983) [2012, Remastered & Expanded Edition]
R&B, Soul/Funk, Electronic | EAC Rip | FLAC, Img+CUE + LOG + Full Scans-600dpi (JPEG) | 63:25 Min | 497,36 Mb
Label: Funkytowngrooves / Arista Records (USA) | Released: 2012, June, 8

"
Kashif is a the self-titled debut of Kashif. It was a hit that put him on the music scene with his R&B single "I Just Gotta Have You". The album also includes the hits "Stone Love", "Help Yourself to My Love", and "Say Something Love". This album was digitally remastered by Funkytowngrooves in 2012 and includes five additional tracks.
"

source: wikipedia
Review by Craig Lytle
Kashif burst onto the music scene with his Billboard R&B single "I Just Gotta Have You." His urgent delivery oozes with vibrancy accompanied by a poppin' rhythm arrangement and some solid change-ups. It peaked at number five after 20 weeks. "Stone Love" commissions a funky bassline and seductive background vocals which contrast Kashif's zealous intonations. The single topped off at 22. With its moderately aggressive rhythm, "Help Yourself to My Love" finds the Brooklyn native patiently cradling the lyric. This album has one good composition after another. Kashif's adamant deliveries are poisely contrasted by cooing background. Though there are no authentic string and horn ensemble, the fomer B.T. Express member gets optimal use of his sythnesizers and keybaords. This is an excellent debut.
http://i68.fastpic.ru/big/2015/0307/e5/3cee1209d88665a2f9be7c91afdcc8e5.jpg

http://i67.fastpic.ru/big/2015/0307/90/bd437d494d9722743cd48e5caf8cde90.jpg


Release of the album: 1985 [LP Arista, Cat.# AL 9620, USA]
Release of this CD: 2012, June, 8 [CD Funkytowngrooves (USA), Cat.# FTG-283 / EAN: 0851903003304]
℗ 2012 Sony Music Entertainment, This compilation © 2012 Funkytowngrooves USA
Distributed by Funkytowngrooves USA.
Manufactured by Sony Music Entertainment

Note: Remastered from the Original Master Tapes with 5 Bonus Tracks

Producers: Kashif, Morrie Brown
Photography By ack Cover - Rotem
Photography By [Front Cover] - Sam Gibson

Backing Vocals - B.J. Nelson, Brenda White, Evelyn King, Fonzi Thornton, Kashif, Latifa, Lillo Thomas, Mel'isa Morgan, Michelle Cobbs, Phillip Ballou, Tawatha Agee


Tracklist:

01. Don't Stop My Love (04:36)
(Kashif)
02. Stone Love (05:29)
(Kashif / La La)
03. I Just Gotta Have You (Lover Turn Me On) (05:48)
(Kashif)
04. Help Yourself To My Love (04:05)
(Paul Lawrence Jones III)
05. Rumors (04:22)
(Kashif)
06. Say Somethin' Love (05:14)
(Kashif)
07. The Mood (04:13)
(Kashif)
08. All (04:15)
(Kashif / Alfonso Thorton / Fredd Zarr)

Bonus Tracks:

09. Help Yourself To My Love (12" Version) (04:41)
(Paul Lawrence Jones III)
10. I Just Gotta Have You (Lover Turn Me On) (Instrumental) (05:51)
(Kashif)
11. I Just Gotta Have You (Lover Turn Me On) (Single Version) (04:49)
(Kashif)
12. Stone Love (Instrumental) (05:23)
(Kashif / La La)
13. Say Somethin' Love (Single Version) (04:39)
(Kashif)

Exact Audio Copy V1.0 beta 3 from 29. August 2011

EAC extraction logfile from 13. April 2013, 12:52

Kashif / Kashif (Expanded Edition)

Used drive : ATAPI DVD DW 8X16X8X16 Adapter: 0 ID: 2

Read mode : Secure
Utilize accurate stream : Yes
Defeat audio cache : Yes
Make use of C2 pointers : No

Read offset correction : 618
Overread into Lead-In and Lead-Out : No
Fill up missing offset samples with silence : Yes
Delete leading and trailing silent blocks : No
Null samples used in CRC calculations : Yes
Used interface
: Native Win32 interface for Win NT & 2000

Used output format : Internal WAV Routines
Sample format : 44.100 Hz; 16 Bit; Stereo

TOC of the extracted CD Track | Start | Length | Start sector | End sector
-----------
1 | 0:00.00 | 4:36.00 | 0 | 20699
2 | 4:36.00 | 5:29.03 | 20700 | 45377
3 | 10:05.03 | 5:48.50 | 45378 | 71527
4 | 15:53.53 | 4:05.73 | 71528 | 89975
5 | 19:59.51 | 4:22.60 | 89976 | 109685
6 | 24:22.36 | 5:14.28 | 109686 | 133263
7 | 29:36.64 | 4:13.27 | 133264 | 152265
8 | 33:50.16 | 4:15.70 | 152266 | 171460
9 | 38:06.11 | 4:41.04 | 171461 | 192539
10 | 42:47.15 | 5:51.72 | 192540 | 218936
11 | 48:39.12 | 4:49.63 | 218937 | 240674
12 | 53:29.00 | 5:23.09 | 240675 | 264908
13 | 58:52.09 | 4:39.12 | 264909 | 285845

Range status and errors

Selected range Filename C:\BlondStyle\Kashif - Kashif (Expanded Edition).wav Peak level 99.6 %
Extraction speed 9.4 X
Range quality 100.0 %
Test CRC E1B8A75D
Copy CRC E1B8A75D
Copy OK

No errors occurred


AccurateRip summary

Track 1 not present in database
Track 2 not present in database
Track 3 not present in database
Track 4 not present in database
Track 5 not present in database
Track 6 not present in database
Track 7 not present in database
Track 8 not present in database
Track 9 not present in database
Track 10 not present in database
Track 11 not present in database
Track 12 not present in database
Track 13 not present in database

None of the tracks are present in the AccurateRip database

End of status report

==== Log checksum F84FFEB1D1A1417D1FD29CE68DE826DFD9806F28879157D03BB54629B46A0449 ====

-
Statistics for: Kashif - Kashif (Expanded Edition).wav
Number of Samples: 168077448
- left right

Peak value: -0.03 dB --- -0.03 dB
Avg RMS: -13.38 dB --- -13.52 dB
DR channel: 11.52 dB --- 11.91 dB
-

Official DR value: DR12
=
DOWNLOAD LINKS:
Buy Premium To Support Me & Get Resumable Support & Max Speed


Links are Interchangeable - No Password - Single Extraction

Kashif - Kashif (1983) [2012, Remastered & Expanded Edition] Fast Download


XsAd2

 
 
 
Dear visitor, you went to the site as an unregistered user. We encourage you to register or enter the site under your name.
 
   
 
 (Votes #: 0)