2013Zone For Latest Downloads

 
     
 
Legal Downloads » Music » Kool & The Gang - The Very Best of. Live In Concert (2007)
Menu
Home Applications
Games Movies
Music TV Shows
Torrents Graphics

Sitemap

RSS
 
Advanced Search
Last News
Site Info
Top Contributors:
  1    supper88 32766
  2    admin 32683
  3    Whisky 10080
  4    Shark_ 8911
  5    creativelivenew 8706
  6    whathesupa 2799
  7    candymypost 840
  8    hvnteam 629
  9    vuong87 3


Articles:
  This Hour: 0
  Today: 0
  This Month: 52
  All Time: 515552


Torrents:
  Today: 0
  Yesterday: 0
  All Time: 156675


Membership:
  Registered Today :0
  This Hour:0
  This Month:0
  Total:14
  Banned:1

{online}
{inform_torrent}
Friend:
Download Nulled Scripts
Torrent Download
Trend
Trend
VPN_ad

Search In Site

Music : Kool & The Gang - The Very Best of. Live In Concert (2007)
 
http://i60.fastpic.ru/big/2015/0309/09/05aad7eb07f6d733287813f20c2e9b09.jpg

Kool & The Gang - The Very Best of. Live In Concert (2007)
EAC | Flac(Image) + Cue + Log & MP3 CBR 320Kbps
Ear Music, SZCD 6953-10 | Ukraine | ~ 336 or 138 Mb | Scans(jpg) Included
Soul / Funk | Scans(png, 600dpi) -> 104 Mb

"Live archive release from the American R&B/Soul/Funk outfit. On the occasion of their 40th anniversary, Kool & The Gang gave a concert in Denver, Colorado in the summer of 2005 to celebrate four decades of success all over the world..."

Kool & The Gang - The Very Best of. Live In Concert (2007):

http://i64.fastpic.ru/big/2015/0309/70/3738cdd39af842d18b593efbe9f8de70.jpg

Tracklist:

01. Fresh
02. Take My Heart
03. Too Hot
04. Joanna
05. Hollywood Swinging
06. Jungle Boogie
07. Open Sesame
08. Ladies Night
09. Get Down On It
10. Celebration

Exact Audio Copy V1.0 beta 4 from 7. December 2014

EAC extraction logfile from 2. March 2015, 1:39

Kool & The Gang / The Very Best of. Live In Concert

Used drive : PIONEER DVD-RW DVR-220L Adapter: 1 ID: 0

Read mode : Secure
Utilize accurate stream : Yes
Defeat audio cache : Yes
Make use of C2 pointers : No

Read offset correction : 6
Overread into Lead-In and Lead-Out : No
Fill up missing offset samples with silence : Yes
Delete leading and trailing silent blocks : No
Null samples used in CRC calculations : Yes
Used interface
: Native Win32 interface for Win NT & 2000

Used output format : User Defined Encoder
Selected bitrate : 768 kBit/s
Quality
: High
Add ID3 tag : No
Command line compressor : D:\Exact Audio Copy\Flac\flac.exe
Additional command line options : -V -8 -T "Date=%year%" -T "Genre=%genre%" %source%

TOC of the extracted CD Track | Start | Length | Start sector | End sector
-----------
1 | 0:00.00 | 4:20.62 | 0 | 19561
2 | 4:20.62 | 3:20.09 | 19562 | 34570
3 | 7:40.71 | 6:57.07 | 34571 | 65852
4 | 14:38.03 | 4:37.02 | 65853 | 86629
5 | 19:15.05 | 4:29.03 | 86630 | 106807
6 | 23:44.08 | 4:18.00 | 106808 | 126157
7 | 28:02.08 | 2:53.65 | 126158 | 139197
8 | 30:55.73 | 6:30.64 | 139198 | 168511
9 | 37:26.62 | 6:43.69 | 168512 | 198805
10 | 44:10.56 | 6:46.25 | 198806 | 229280

Range status and errors

Selected range Filename D:\New Rips\Kool & The Gang - The Very Best of. Live In Concert\Kool & The Gang - The Very Best of. Live In Concert.wav Peak level 97.2 %
Extraction speed 6.9 X
Range quality 99.9 %
Test CRC C01B0359
Copy CRC C01B0359
Copy OK

No errors occurred


AccurateRip summary

Track 1 cannot be verified as accurate (confidence 1) [961EE87F], AccurateRip returned [32C3B9D6] (AR v2)
Track 2 cannot be verified as accurate (confidence 1) [D9A1BB92], AccurateRip returned [5371CEB0] (AR v2)
Track 3 cannot be verified as accurate (confidence 1) 298210C, AccurateRip returned [20AC2710] (AR v2)
Track 4 cannot be verified as accurate (confidence 1) [CFD63296], AccurateRip returned [041880CC] (AR v2)
Track 5 cannot be verified as accurate (confidence 1) [975164B5], AccurateRip returned [A420C207] (AR v2)
Track 6 cannot be verified as accurate (confidence 1) [ED370DCA], AccurateRip returned [D09B7E70] (AR v2)
Track 7 cannot be verified as accurate (confidence 1) [830159E7], AccurateRip returned 63D900D (AR v2)
Track 8 cannot be verified as accurate (confidence 1) [6D051C0E], AccurateRip returned [8BFE7417] (AR v2)
Track 9 cannot be verified as accurate (confidence 1) [8A0C26D8], AccurateRip returned [9EB7759B] (AR v2)
Track 10 cannot be verified as accurate (confidence 1) [D0FB47C0], AccurateRip returned [873E449A] (AR v2)

No tracks could be verified as accurate
You may have a different pressing from the one(s) in the database

End of status report

---- CUETools DB Plugin V2.1.4

[CTDB TOCID: GL9ZO7g26cMENz9yT.qjPRiQWhY-] disk not present in database
Submit result: GL9ZO7g26cMENz9yT.qjPRiQWhY- has been uploaded

==== Log checksum C9CB8C107C460E153B0C7F64F26E70228D5A662D13E0FC1BC094F4C144A4B71A ====

foobar2000 1.2.9 / Dynamic Range Meter 1.1.1
log date: 2015-03-06 03:04:32

--
Analyzed: Kool & The Gang / The Very Best of. Live In Concert
--

DR Peak RMS Duration Track
--
DR15 -0.68 dB -16.56 dB 4:21 01-Fresh
DR15 -0.25 dB -17.38 dB 3:20 02-Take My Heart
DR16 -0.24 dB -17.61 dB 6:57 03-Too Hot
DR13 -0.91 dB -16.85 dB 4:37 04-Joanna
DR14 -0.74 dB -15.96 dB 4:29 05-Hollywood Swinging
DR14 -0.50 dB -15.80 dB 4:18 06-Jungle Boogie
DR14 -0.90 dB -16.18 dB 2:54 07-Open Sesame
DR15 -1.02 dB -17.89 dB 6:31 08-Ladies Night
DR15 -1.02 dB -18.65 dB 6:44 09-Get Down On It
DR14 -0.56 dB -16.95 dB 6:46 10-Celebration
--

Number of tracks: 10
Official DR value: DR14

Samplerate: 44100 Hz
Channels: 2
Bits per sample: 16
Bitrate: 846 kbps
Codec: FLAC

[CUETools log; Date: 03.03.2015 18:35:12; Version: 2.1.4]
[CTDB TOCID: GL9ZO7g26cMENz9yT.qjPRiQWhY-] found.
Track | CTDB Status
1 | (1/1) Accurately ripped
2 | (1/1) Accurately ripped
3 | (1/1) Accurately ripped
4 | (1/1) Accurately ripped
5 | (1/1) Accurately ripped
6 | (1/1) Accurately ripped
7 | (1/1) Accurately ripped
8 | (1/1) Accurately ripped
9 | (1/1) Accurately ripped
10 | (1/1) Accurately ripped
[AccurateRip ID: 0011ef53-009103d1-8a0bf10a] found.
Track [ CRC | V2 ] Status
01 [04dd8121|961ee87f] (0+0/1) No match
02 [21f0e920|d9a1bb92] (0+0/1) No match
03 9a58fd6|b298210c (0+0/1) No match
04 [8eb60423|cfd63296] (0+0/1) No match
05 [6b1a2e45|975164b5] (0+0/1) No match
06 [5f151aad|ed370dca] (0+0/1) No match
07 [0a7085da|830159e7] (0+0/1) No match
08 [a035f5df|6d051c0e] (0+0/1) No match
09 [764f8f01|8a0c26d8] (0+0/1) No match
10 [1c4be2f3|d0fb47c0] (0+0/1) No match
Offsetted by 120:
01 [a381db71] (0/1) No match (V2 was not tested)
02 [9dffc91e] (0/1) No match (V2 was not tested)
03 [25cee3d4] (0/1) No match (V2 was not tested)
04 [c190922f] (0/1) No match (V2 was not tested)
05 [6dd497f0] (0/1) No match (V2 was not tested)
06 [39adba30] (0/1) No match (V2 was not tested)
07 [46f912d0] (0/1) No match (V2 was not tested)
08 [f89c21a1] (0/1) No match (V2 was not tested)
09 [8659404c] (0/1) No match (V2 was not tested)
10 [f41046c9] (0/1) No match (V2 was not tested)

Track Peak [ CRC32 ] [W/O NULL] [ LOG ]
-- 97,2 [C01B0359] [4E5E51D4] CRC32
01 92,5 [0BB4FA8E] [117102AB]
02 97,1 [DBB54EFC] [79091D2D]
03 97,2 [95CA2101] [F251C36A]
04 90,0 FD04EA1 [8DC4D8F7]
05 91,8 [683CD8C9] [72319190]
06 94,4 [A92E49CC] [8D0F27BC]
07 90,1 DE35EE1 [DBE62F07]
08 88,9 [E0D37C6B] [96B8E458]
09 88,9 [814D7401] 14AB997
10 93,7 [270771FA] [9F810379]

http://i57.fastpic.ru/big/2015/0309/63/3f177f5ae41f622b24f65f66e2ac8163.jpg

Download Kool & The Gang - The Very Best of. Live In Concert (2007):

|

DOWNLOAD LINKS:
Buy Premium To Support Me & Get Resumable Support & Max Speed


Links are Interchangeable - No Password - Single Extraction

Kool & The Gang - The Very Best of. Live In Concert (2007) Fast Download


Cheap VPN

 
 
 
Dear visitor, you went to the site as an unregistered user. We encourage you to register or enter the site under your name.
 
   
 
 (Votes #: 0)