2013Zone For Latest Downloads

 
     
 
Legal Downloads » Music » Spyro Gyra - In Modern Times (2001)
Menu
Home Applications
Games Movies
Music TV Shows
Torrents Graphics

Sitemap

RSS
 
Advanced Search
Last News
Site Info
Top Contributors:
  1    supper88 32766
  2    admin 32711
  3    Whisky 10080
  4    Shark_ 8911
  5    creativelivenew 8706
  6    whathesupa 2799
  7    candymypost 840
  8    hvnteam 629
  9    vuong87 3


Articles:
  This Hour: 0
  Today: 0
  This Month: 12
  All Time: 515504


Torrents:
  Today: 0
  Yesterday: 0
  All Time: 156679


Membership:
  Registered Today :0
  This Hour:0
  This Month:0
  Total:14
  Banned:1

{online}
{inform_torrent}
Friend:
Full Download Scripts
Torrent Download
Trend
Trend

Search In Site

Music : Spyro Gyra - In Modern Times (2001)
 
http://i58.fastpic.ru/big/2015/0309/53/76034be16d908dbda55f3e4ca5d94353.jpg

Spyro Gyra - In Modern Times (2001)
Jazz | 1cd | EAC Rip | Flac + Cue + Log | covers
Heads Up HUSA 9061, SACD Red Book layer | rel: 2001 | 445Mb

When you consider that 1979 was the year that launched Spyro Gyra onto the pop charts with their number one hit "Morning Dance," for what was essentially a new style of jazz, their achievements seem all the more astounding. With the release of In Modern Times, the group commemorates 25 years of recording and a move to Heads Up International with this fresh, new collection. The enhanced CD, complete with a video and biography, features the talents of its co-founder, Jay Beckenstein, on saxophones, Tom Schuman on keyboards, Julio Fernandez on guitars, Scott Ambush on bass, and Joel Rosenblatt on drums. The 12 original concepts written by members of the group, the inimitable Chuck Loeb, and co-writers Jeremy Wall and Phil Magallanes, keep the listening interesting, sweet, and real.
The opening track, "After Hours," is a sultry tune featuring orchestral enhancement, subtle horn charts, and creates a mood that signals the listener is in for a great time. Their retro soul tribute to Grover Washington, Jr., " "Groovin' for Grover" features an excellent soprano saxophone melody by Jay Beckenstein and glistens brilliantly among this great array of contemporary jazz gems. The crown jewel, however, is "Florida Straits," a fiery, danceable, Latin jam. Beckenstein's sax playing lights a fire under Julio Fernandez' Carlos Santana-influenced guitar riffs, who cuts loose on a solo that sets the song ablaze. Along with percussionist David Quarles and drummer Joel Rosenblatt, this descarga helps to set In Modern Times apart from previous chart makers by Spyro Gyra. Another great song is "East River Blue," which features the bluesy bop and soulful resonance of Beckenstein's sax lines and the excellent B-3 organ solo by Tom Schuman. This enhanced CD is dynamic and flows as if self-propelled because of the superior technology, well-written songs, tight horn charts, eclectic grooves, and exceptional contemporary jazz, fusion, and R&B-based performers who mix various elements into a bold, modern sound. ~Allmusic

Track listing
01. After Hours (5:08)
02. Feelin' Fine (4:23)
03. Julio's Party (5:09)
04. The River Between (6:45)
05. Groovin' For Grover (5:51)
06. Open Door (4:38)
07. Florida Straits (4:19)
08. Feelin' Fine Pt. 2 (4:04)
09. East River Blue (6:14)
10. Your Touch (5:11)
11. Lucky Bounce (4:19)
12. Planet J (4:42)
~ (60:42)

Personnel
- Jay Beckenstein - saxophone
- Tom Schuman - keyboards
- Julio Fernández - guitar
- Joel Rosenblatt - drums
- Scott Ambush - bass
- David Charles - percussion
- Marc Quinones - percussion
- Andrew Lippman - trombone

Exact Audio Copy V0.99 prebeta 5 from 4. May 2009

Отчёт EAC об извлечении, выполненном 28. августа 2010, 22:04

Spyro Gyra / In Modern Times

Дисковод: PIONEER DVD-RW DVR-112D Adapter: 1 ID: 0

Режим чтения : Достоверность
?спользование точного потока : Да
Отключение кэ?а аудио : Да
?спользование указателей C2 : Нет

Коррекция смещения при чтении : 48
Способность читать области Lead-in и Lead-out : Нет
Заполнение пропущенных сэмплов ти?иной : Да
Удаление блоков с ти?иной в начале и конце : Нет
При вычислениях CRC использовались нулевые сэмплы : Да
?нтерфейс
: Встроенный Win32-интерфейс для Win NT/2000
Обработка зазоров
: Добавлено к предыдущему треку

Выходной формат : Пользовательский кодировщик
Выбранный битрейт : 128 kBit/s
Качество : Высокий
Добавление ID3-тэга : Нет
Утилита сжатия : C:\Program Files\Exact Audio Copy\Flac\flac.exe
Дополнительные параметры : -8 -V -T "ARTIST=%a" -T "TITLE=%t" -T "ALBUM=%g" -T "DATE=%y" -T "TRACKNUMBER=%n" -T "GENRE=%m" -T "COMMENT=EAC FLAC -8" %s

TOC извлечённого CD Трек | Старт | Длительность | Начальный сектор | Конечный сектор
-------
1 | 0:00.00 | 5:08.07 | 0 | 23106
2 | 5:08.07 | 4:23.13 | 23107 | 42844
3 | 9:31.20 | 5:08.57 | 42845 | 66001
4 | 14:40.02 | 6:45.00 | 66002 | 96376
5 | 21:25.02 | 5:50.40 | 96377 | 122666
6 | 27:15.42 | 4:38.13 | 122667 | 143529
7 | 31:53.55 | 4:18.57 | 143530 | 162936
8 | 36:12.37 | 4:04.08 | 162937 | 181244
9 | 40:16.45 | 6:14.25 | 181245 | 209319
10 | 46:30.70 | 5:10.50 | 209320 | 232619
11 | 51:41.45 | 4:18.42 | 232620 | 252011
12 | 56:00.12 | 4:42.18 | 252012 | 273179

Трек 1 ?мя файла G:\torrents\M.Music\Spyro Gyra - In Modern Times\01. Spyro Gyra - After Hours.wav Длина предзазора 0:00:02.00 Пиковый уровень 97.7 %
Качество трека 100.0 %
CRC теста 64065027
CRC копии 64065027
Точное извлечение (достоверность 10) [0C7DFE6F]
Копирование... OK

Трек 2 ?мя файла G:\torrents\M.Music\Spyro Gyra - In Modern Times\02. Spyro Gyra - Feelin' Fine.wav Длина предзазора 0:00:00.61 Пиковый уровень 97.7 %
Качество трека 100.0 %
CRC теста 8BEBA9E7
CRC копии 8BEBA9E7
Точное извлечение (достоверность 10) [5D2AAD16]
Копирование... OK

Трек 3 ?мя файла G:\torrents\M.Music\Spyro Gyra - In Modern Times\03. Spyro Gyra - Julio's Party.wav Пиковый уровень 97.7 %
Качество трека 100.0 %
CRC теста A132D22A
CRC копии A132D22A
Точное извлечение (достоверность 10) [3EC921DB]
Копирование... OK

Трек 4 ?мя файла G:\torrents\M.Music\Spyro Gyra - In Modern Times\04. Spyro Gyra - The River Between.wav Длина предзазора 0:00:00.51 Пиковый уровень 97.7 %
Качество трека 100.0 %
CRC теста 31091E40
CRC копии 31091E40
Точное извлечение (достоверность 10) [ABF2BD9E]
Копирование... OK

Трек 5 ?мя файла G:\torrents\M.Music\Spyro Gyra - In Modern Times\05. Spyro Gyra - Groovin' For Grover.wav Длина предзазора 0:00:00.47 Пиковый уровень 97.7 %
Качество трека 100.0 %
CRC теста 3F70B157
CRC копии 3F70B157
Точное извлечение (достоверность 10) [696C4A25]
Копирование... OK

Трек 6 ?мя файла G:\torrents\M.Music\Spyro Gyra - In Modern Times\06. Spyro Gyra - Open Door.wav Пиковый уровень 97.7 %
Качество трека 100.0 %
CRC теста 3DE68F72
CRC копии 3DE68F72
Точное извлечение (достоверность 10) [67EE36BA]
Копирование... OK

Трек 7 ?мя файла G:\torrents\M.Music\Spyro Gyra - In Modern Times\07. Spyro Gyra - Florida Straits.wav Длина предзазора 0:00:00.42 Пиковый уровень 94.4 %
Качество трека 100.0 %
CRC теста F2BA54F1
CRC копии F2BA54F1
Точное извлечение (достоверность 10) [E57BC9AC]
Копирование... OK

Трек 8 ?мя файла G:\torrents\M.Music\Spyro Gyra - In Modern Times\08. Spyro Gyra - Feelin' Fine Pt. 2.wav Длина предзазора 0:00:00.55 Пиковый уровень 97.7 %
Качество трека 100.0 %
CRC теста 5343DA25
CRC копии 5343DA25
Точное извлечение (достоверность 10) [94BD2E89]
Копирование... OK

Трек 9 ?мя файла G:\torrents\M.Music\Spyro Gyra - In Modern Times\09. Spyro Gyra - East River Blue.wav Длина предзазора 0:00:02.20 Пиковый уровень 97.7 %
Качество трека 100.0 %
CRC теста 4021568B
CRC копии 4021568B
Точное извлечение (достоверность 10) [216C0FF3]
Копирование... OK

Трек 10 ?мя файла G:\torrents\M.Music\Spyro Gyra - In Modern Times\10. Spyro Gyra - Your Touch.wav Длина предзазора 0:00:01.30 Пиковый уровень 97.7 %
Качество трека 100.0 %
CRC теста 1D53DEE8
CRC копии 1D53DEE8
Точное извлечение (достоверность 10) [3DA0F48C]
Копирование... OK

Трек 11 ?мя файла G:\torrents\M.Music\Spyro Gyra - In Modern Times\11. Spyro Gyra - Lucky Bounce.wav Длина предзазора 0:00:00.28 Пиковый уровень 97.7 %
Качество трека 100.0 %
CRC теста A91F9985
CRC копии A91F9985
Точное извлечение (достоверность 10) 461294C
Копирование... OK

Трек 12 ?мя файла G:\torrents\M.Music\Spyro Gyra - In Modern Times\12. Spyro Gyra - Planet J.wav Длина предзазора 0:00:00.35 Пиковый уровень 97.7 %
Качество трека 99.9 %
CRC теста 42B74ADB
CRC копии 42B74ADB
Точное извлечение (достоверность 10) [88D3DF13]
Копирование... OK

Все треки извлечены точно

О?ибок не произо?ло

Конец отчёта

[CUETools log; Date: 2015.03.04. 12:32:30; Version: 2.1.4]
[CTDB TOCID: qHjV4EE81iRi2qwOi..d3x37Fro-] found.
Track | CTDB Status
1 | (5/5) Accurately ripped
2 | (5/5) Accurately ripped
3 | (5/5) Accurately ripped
4 | (5/5) Accurately ripped
5 | (5/5) Accurately ripped
6 | (5/5) Accurately ripped
7 | (5/5) Accurately ripped
8 | (5/5) Accurately ripped
9 | (5/5) Accurately ripped
10 | (5/5) Accurately ripped
11 | (5/5) Accurately ripped
12 | (4/5) Accurately ripped
[AccurateRip ID: 001b8e12-0100b508-a00e3a0c] found.
Track [ CRC | V2 ] Status
01 [0c7dfe6f|1bd25733] (13+10/23) Accurately ripped
02 [5d2aad16|9cf312d1] (13+10/23) Accurately ripped
03 [3ec921db|4f288811] (13+10/23) Accurately ripped
04 [abf2bd9e|88a94965] (13+10/23) Accurately ripped
05 [696c4a25|aca20b54] (13+10/23) Accurately ripped
06 [67ee36ba|acb41a9e] (13+10/23) Accurately ripped
07 [e57bc9ac|ca9712e4] (13+10/23) Accurately ripped
08 [94bd2e89|6a4d5893] (13+10/23) Accurately ripped
09 [216c0ff3|5a26ad74] (13+09/22) Accurately ripped
10 [3da0f48c|81ee4aa9] (13+10/23) Accurately ripped
11 461294c|ac9f3174 (13+10/23) Accurately ripped
12 [88d3df13|69b1c5d2] (13+10/23) Accurately ripped

Track Peak [ CRC32 ] [W/O NULL]
-- 97,7 [3355B074] [8E786069]
01 97,7 [64065027] [3232B61B]
02 97,7 [8BEBA9E7] [6F2F9A46]
03 97,7 [A132D22A] [8DBE6862]
04 97,7 [31091E40] [31DEA01F]
05 97,7 [3F70B157] [AD020CE8]
06 97,7 [3DE68F72] [736026B1]
07 94,4 [F2BA54F1] [6FCC4198]
08 97,7 [5343DA25] [4C1E72A2]
09 97,7 [4021568B] [49D9BEC1]
10 97,7 [1D53DEE8] [94FBAE49]
11 97,7 [A91F9985] [2CAECEFC]
12 97,7 [42B74ADB] [0BF808D5]

Thx to IrinaTC
DOWNLOAD LINKS:
Buy Premium To Support Me & Get Resumable Support & Max Speed


Links are Interchangeable - No Password - Single Extraction

Spyro Gyra - In Modern Times (2001) Fast Download



 
 
 
Dear visitor, you went to the site as an unregistered user. We encourage you to register or enter the site under your name.
 
   
 
 (Votes #: 0)