2013Zone For Latest Downloads

 
     
 
Legal Downloads » Music » Joe Turner - 1949-1950 (Chronological Classics) (2001)
Menu
Home Applications
Games Movies
Music TV Shows
Torrents Graphics

Sitemap

RSS
 
Advanced Search
Last News
Site Info
Top Contributors:
  1    supper88 32766
  2    admin 32671
  3    Whisky 10080
  4    Shark_ 8911
  5    creativelivenew 8706
  6    whathesupa 2799
  7    candymypost 840
  8    hvnteam 629
  9    vuong87 3


Articles:
  This Hour: 0
  Today: 0
  This Month: 58
  All Time: 515616


Torrents:
  Today: 0
  Yesterday: 0
  All Time: 156702


Membership:
  Registered Today :0
  This Hour:0
  This Month:0
  Total:14
  Banned:1

{online}
{inform_torrent}
Friend:
We Recomend
Trend
Trend
Ad1

Search In Site

Music : Joe Turner - 1949-1950 (Chronological Classics) (2001)
 
http://i64.fastpic.ru/big/2015/0315/39/28444174a0120b75e9cd6715507c0739.jpg

Joe Turner - 1949-1950 (Chronological Classics) (2001)
Blues/Swing | 1cd | XLD Rip | Flac + Cue + Log | covers
Chronological Classics 1180 | rel: 2001 | 140Mb

You know it's about time somebody took all the little records that Big Joe Turner managed to make back in the day and brought them out in sequence the way they appear in the Classics Chronological Series. Nobody in the world ever sounded quite like Joe Turner and nobody ever will. There is a magical quality that makes his blues performances feel like rituals full of clarity and grace. Each and every Joe Turner record is as beautiful as a massive stand of tiger lilies growing up through the middle of a brickyard, silent, solid, and dignified under the dew in the first light of dawn.
Track listing
01. Messin' Around (2:45)
02. Mardi Gras Boogie (2:37)
03. My Heart Belongs to You (2:39)
04. So Many Women Blues (2:33)
05. I Don't Dig It (2:40)
06. Rainy Weather Blues (2:32)
07. Feelin' So Sad (2:34)
08. Boogie Woogie Baby (2:46)
09. Married Woman Blue (2:33)
10. Moody Baby (2:40)
11. Wish I Had a Dollar (2:47)
12. Fuzzy Wuzzy Honey (2:37)
13. Adam Bit the Apple (2:50)
14. Still in the Dark (2:50)
15. Life Is Just a Card Game (3:07)
16. Jumpin' at the Jubilee (2:50)
17. Story to Tell (2:31)
18. Jumpin' Tonight (Midnight Rocking) (2:23)
19. Lucille (2:33)
20. Love My Baby (Little Bitty Baby) (2:23)
21. Blues Jumped the Rabbit (2:35)
22. The Sun Is Shining (1:57)
~ (57:44)

X Lossless Decoder version 20140504 (147.0)

XLD extraction logfile from 2014-06-12 11:20:25 +0100

Joe Turner / 1949-1950

Used drive : MATSHITA DVD-R UJ-8A8 (revision HB14)
Media type : Pressed CD

Ripper mode : XLD Secure Ripper
Disable audio cache : OK for the drive with a cache less than 1375KiB
Make use of C2 pointers : NO
Read offset correction : 102
Max retry count : 100
Gap status : Analyzed, Appended

TOC of the extracted CD
Track | Start | Length | Start sector | End sector
-----------
1 | 00:00:00 | 02:45:29 | 0 | 12403
2 | 02:45:29 | 02:36:62 | 12404 | 24165
3 | 05:22:16 | 02:38:59 | 24166 | 36074
4 | 08:01:00 | 02:32:38 | 36075 | 47512
5 | 10:33:38 | 02:39:42 | 47513 | 59479
6 | 13:13:05 | 02:31:41 | 59480 | 70845
7 | 15:44:46 | 02:33:43 | 70846 | 82363
8 | 18:18:14 | 02:46:06 | 82364 | 94819
9 | 21:04:20 | 02:33:20 | 94820 | 106314
10 | 23:37:40 | 02:40:32 | 106315 | 118346
11 | 26:17:72 | 02:47:13 | 118347 | 130884
12 | 29:05:10 | 02:37:28 | 130885 | 142687
13 | 31:42:38 | 02:49:74 | 142688 | 155436
14 | 34:32:37 | 02:49:74 | 155437 | 168185
15 | 37:22:36 | 03:06:69 | 168186 | 182204
16 | 40:29:30 | 02:50:32 | 182205 | 194986
17 | 43:19:62 | 02:31:08 | 194987 | 206319
18 | 45:50:70 | 02:23:09 | 206320 | 217053
19 | 48:14:04 | 02:33:34 | 217054 | 228562
20 | 50:47:38 | 02:23:37 | 228563 | 239324
21 | 53:11:00 | 02:35:28 | 239325 | 250977
22 | 55:46:28 | 01:57:22 | 250978 | 259774

AccurateRip Summary (DiscID: 002e36fd-02e3f980-3d0d8716)
Track 01 : OK (v2, confidence 2/2)
Track 02 : OK (v2, confidence 2/2)
Track 03 : OK (v2, confidence 2/2)
Track 04 : OK (v2, confidence 2/2)
Track 05 : OK (v2, confidence 2/2)
Track 06 : OK (v2, confidence 2/2)
Track 07 : OK (v2, confidence 2/2)
Track 08 : OK (v2, confidence 2/2)
Track 09 : OK (v2, confidence 2/2)
Track 10 : OK (v2, confidence 2/2)
Track 11 : OK (v2, confidence 2/2)
Track 12 : OK (v2, confidence 2/2)
Track 13 : OK (v2, confidence 2/2)
Track 14 : OK (v2, confidence 2/2)
Track 15 : OK (v2, confidence 2/2)
Track 16 : OK (v2, confidence 2/2)
Track 17 : OK (v2, confidence 2/2)
Track 18 : OK (v2, confidence 2/2)
Track 19 : OK (v2, confidence 2/2)
Track 20 : OK (v2, confidence 2/2)
Track 21 : OK (v2, confidence 2/2)
Track 22 : OK (v2, confidence 2/2)
->All tracks accurately ripped.

All Tracks
Album gain : -6.03 dB
Peak : 0.999969
Statistics
Read error : 0
Jitter error (maybe fixed) : 0
Retry sector count : 0
Damaged sector count : 0

Track 01
Filename : /XLD/Joe Turner - 2001 - 1949-1950 [FLAC]/01 Messin' Around.flac
/XLD/Joe Turner - 2001 - 1949-1950 [LAME MP3 (320)]/01 Messin' Around.mp3
/XLD/Joe Turner - 2001 - 1949-1950 [LAME MP3 (V0)]/01 Messin' Around.mp3
Pre-gap length : 00:02:00 Track gain : -6.37 dB
Peak : 0.999969
CRC32 hash (test run) : 55139CE8
CRC32 hash : 55139CE8
CRC32 hash (skip zero) : 16E0DDC3
AccurateRip v1 signature : 4B465863
AccurateRip v2 signature : 45359842
->Accurately ripped (v2, confidence 2/2)
Statistics
Read error : 0
Jitter error (maybe fixed) : 0
Retry sector count : 0
Damaged sector count : 0

Track 02
Filename : /XLD/Joe Turner - 2001 - 1949-1950 [FLAC]/02 Mardi Gras Boogie.flac
/XLD/Joe Turner - 2001 - 1949-1950 [LAME MP3 (320)]/02 Mardi Gras Boogie.mp3
/XLD/Joe Turner - 2001 - 1949-1950 [LAME MP3 (V0)]/02 Mardi Gras Boogie.mp3
Pre-gap length : 00:03:00 Track gain : -4.67 dB
Peak : 0.999939
CRC32 hash (test run) : 83C4D928
CRC32 hash : 83C4D928
CRC32 hash (skip zero) : 66F41562
AccurateRip v1 signature : 55A3AF7F
AccurateRip v2 signature : 46537BAE
->Accurately ripped (v2, confidence 2/2)
Statistics
Read error : 0
Jitter error (maybe fixed) : 0
Retry sector count : 0
Damaged sector count : 0

Track 03
Filename : /XLD/Joe Turner - 2001 - 1949-1950 [FLAC]/03 My Heart Belongs to You.flac
/XLD/Joe Turner - 2001 - 1949-1950 [LAME MP3 (320)]/03 My Heart Belongs to You.mp3
/XLD/Joe Turner - 2001 - 1949-1950 [LAME MP3 (V0)]/03 My Heart Belongs to You.mp3
Pre-gap length : 00:03:00 Track gain : -3.91 dB
Peak : 0.999939
CRC32 hash (test run) : 6F8E3045
CRC32 hash : 6F8E3045
CRC32 hash (skip zero) : 396E0FBB
AccurateRip v1 signature : 99686EE4
AccurateRip v2 signature : 72F201E4
->Accurately ripped (v2, confidence 2/2)
Statistics
Read error : 0
Jitter error (maybe fixed) : 0
Retry sector count : 0
Damaged sector count : 0

Track 04
Filename : /XLD/Joe Turner - 2001 - 1949-1950 [FLAC]/04 So Many Women Blues.flac
/XLD/Joe Turner - 2001 - 1949-1950 [LAME MP3 (320)]/04 So Many Women Blues.mp3
/XLD/Joe Turner - 2001 - 1949-1950 [LAME MP3 (V0)]/04 So Many Women Blues.mp3
Pre-gap length : 00:03:00 Track gain : -4.15 dB
Peak : 0.999939
CRC32 hash (test run) : 15B15D05
CRC32 hash : 15B15D05
CRC32 hash (skip zero) : 3CC25466
AccurateRip v1 signature : 825C3244
AccurateRip v2 signature : 9D844A5D
->Accurately ripped (v2, confidence 2/2)
Statistics
Read error : 0
Jitter error (maybe fixed) : 0
Retry sector count : 0
Damaged sector count : 0

Track 05
Filename : /XLD/Joe Turner - 2001 - 1949-1950 [FLAC]/05 I Don't Dig It.flac
/XLD/Joe Turner - 2001 - 1949-1950 [LAME MP3 (320)]/05 I Don't Dig It.mp3
/XLD/Joe Turner - 2001 - 1949-1950 [LAME MP3 (V0)]/05 I Don't Dig It.mp3
Pre-gap length : 00:03:00 Track gain : -3.97 dB
Peak : 0.999939
CRC32 hash (test run) : DEEB1C28
CRC32 hash : DEEB1C28
CRC32 hash (skip zero) : 74D05BBC
AccurateRip v1 signature : 99D3CC5E
AccurateRip v2 signature : 30EE7E22
->Accurately ripped (v2, confidence 2/2)
Statistics
Read error : 0
Jitter error (maybe fixed) : 0
Retry sector count : 0
Damaged sector count : 0

Track 06
Filename : /XLD/Joe Turner - 2001 - 1949-1950 [FLAC]/06 Rainy Weather Blues.flac
/XLD/Joe Turner - 2001 - 1949-1950 [LAME MP3 (320)]/06 Rainy Weather Blues.mp3
/XLD/Joe Turner - 2001 - 1949-1950 [LAME MP3 (V0)]/06 Rainy Weather Blues.mp3
Pre-gap length : 00:03:00 Track gain : -5.67 dB
Peak : 0.999939
CRC32 hash (test run) : 0AC71D33
CRC32 hash : 0AC71D33
CRC32 hash (skip zero) : 1584C6A7
AccurateRip v1 signature : FBCAC351
AccurateRip v2 signature : F690F6EA
->Accurately ripped (v2, confidence 2/2)
Statistics
Read error : 0
Jitter error (maybe fixed) : 0
Retry sector count : 0
Damaged sector count : 0

Track 07
Filename : /XLD/Joe Turner - 2001 - 1949-1950 [FLAC]/07 Feelin' So Sad.flac
/XLD/Joe Turner - 2001 - 1949-1950 [LAME MP3 (320)]/07 Feelin' So Sad.mp3
/XLD/Joe Turner - 2001 - 1949-1950 [LAME MP3 (V0)]/07 Feelin' So Sad.mp3
Pre-gap length : 00:03:00 Track gain : -5.18 dB
Peak : 0.999969
CRC32 hash (test run) : 25A75916
CRC32 hash : 25A75916
CRC32 hash (skip zero) : 4287E5BA
AccurateRip v1 signature : EB68E00A
AccurateRip v2 signature : 4F07A138
->Accurately ripped (v2, confidence 2/2)
Statistics
Read error : 0
Jitter error (maybe fixed) : 0
Retry sector count : 0
Damaged sector count : 0

Track 08
Filename : /XLD/Joe Turner - 2001 - 1949-1950 [FLAC]/08 Boogie Woogie Baby.flac
/XLD/Joe Turner - 2001 - 1949-1950 [LAME MP3 (320)]/08 Boogie Woogie Baby.mp3
/XLD/Joe Turner - 2001 - 1949-1950 [LAME MP3 (V0)]/08 Boogie Woogie Baby.mp3
Pre-gap length : 00:03:00 Track gain : -7.04 dB
Peak : 0.999939
CRC32 hash (test run) : EDFC8539
CRC32 hash : EDFC8539
CRC32 hash (skip zero) : 107747E5
AccurateRip v1 signature : 984EB791
AccurateRip v2 signature : B8B5D9B8
->Accurately ripped (v2, confidence 2/2)
Statistics
Read error : 0
Jitter error (maybe fixed) : 0
Retry sector count : 0
Damaged sector count : 0

Track 09
Filename : /XLD/Joe Turner - 2001 - 1949-1950 [FLAC]/09 Married Woman Blue.flac
/XLD/Joe Turner - 2001 - 1949-1950 [LAME MP3 (320)]/09 Married Woman Blue.mp3
/XLD/Joe Turner - 2001 - 1949-1950 [LAME MP3 (V0)]/09 Married Woman Blue.mp3
Pre-gap length : 00:03:00 Track gain : -7.12 dB
Peak : 0.999969
CRC32 hash (test run) : 9DD4803D
CRC32 hash : 9DD4803D
CRC32 hash (skip zero) : B336CB91
AccurateRip v1 signature : 774E16AF
AccurateRip v2 signature : 2E049B6A
->Accurately ripped (v2, confidence 2/2)
Statistics
Read error : 0
Jitter error (maybe fixed) : 0
Retry sector count : 0
Damaged sector count : 0

Track 10
Filename : /XLD/Joe Turner - 2001 - 1949-1950 [FLAC]/10 Moody Baby.flac
/XLD/Joe Turner - 2001 - 1949-1950 [LAME MP3 (320)]/10 Moody Baby.mp3
/XLD/Joe Turner - 2001 - 1949-1950 [LAME MP3 (V0)]/10 Moody Baby.mp3
Pre-gap length : 00:03:00 Track gain : -5.36 dB
Peak : 0.999969
CRC32 hash (test run) : D1980B4E
CRC32 hash : D1980B4E
CRC32 hash (skip zero) : 0804A97B
AccurateRip v1 signature : 43F6FB23
AccurateRip v2 signature : 1B8C19C9
->Accurately ripped (v2, confidence 2/2)
Statistics
Read error : 0
Jitter error (maybe fixed) : 0
Retry sector count : 0
Damaged sector count : 0

Track 11
Filename : /XLD/Joe Turner - 2001 - 1949-1950 [FLAC]/11 Wish I Had a Dollar.flac
/XLD/Joe Turner - 2001 - 1949-1950 [LAME MP3 (320)]/11 Wish I Had a Dollar.mp3
/XLD/Joe Turner - 2001 - 1949-1950 [LAME MP3 (V0)]/11 Wish I Had a Dollar.mp3
Pre-gap length : 00:03:00 Track gain : -4.47 dB
Peak : 0.999939
CRC32 hash (test run) : F253D27F
CRC32 hash : F253D27F
CRC32 hash (skip zero) : 0B29CCCF
AccurateRip v1 signature : 727CE4C6
AccurateRip v2 signature : E0D5A142
->Accurately ripped (v2, confidence 2/2)
Statistics
Read error : 0
Jitter error (maybe fixed) : 0
Retry sector count : 0
Damaged sector count : 0

Track 12
Filename : /XLD/Joe Turner - 2001 - 1949-1950 [FLAC]/12 Fuzzy Wuzzy Honey.flac
/XLD/Joe Turner - 2001 - 1949-1950 [LAME MP3 (320)]/12 Fuzzy Wuzzy Honey.mp3
/XLD/Joe Turner - 2001 - 1949-1950 [LAME MP3 (V0)]/12 Fuzzy Wuzzy Honey.mp3
Pre-gap length : 00:03:00 Track gain : -6.40 dB
Peak : 0.999939
CRC32 hash (test run) : F2D29234
CRC32 hash : F2D29234
CRC32 hash (skip zero) : 416E0A3D
AccurateRip v1 signature : 05E29ADC
AccurateRip v2 signature : 7B5E8A75
->Accurately ripped (v2, confidence 2/2)
Statistics
Read error : 0
Jitter error (maybe fixed) : 0
Retry sector count : 0
Damaged sector count : 0

Track 13
Filename : /XLD/Joe Turner - 2001 - 1949-1950 [FLAC]/13 Adam Bit the Apple.flac
/XLD/Joe Turner - 2001 - 1949-1950 [LAME MP3 (320)]/13 Adam Bit the Apple.mp3
/XLD/Joe Turner - 2001 - 1949-1950 [LAME MP3 (V0)]/13 Adam Bit the Apple.mp3
Pre-gap length : 00:03:00 Track gain : -2.65 dB
Peak : 0.999939
CRC32 hash (test run) : 8440CFAA
CRC32 hash : 8440CFAA
CRC32 hash (skip zero) : DF5EBAD6
AccurateRip v1 signature : 0213C0C5
AccurateRip v2 signature : 1C3FE4FF
->Accurately ripped (v2, confidence 2/2)
Statistics
Read error : 0
Jitter error (maybe fixed) : 0
Retry sector count : 0
Damaged sector count : 0

Track 14
Filename : /XLD/Joe Turner - 2001 - 1949-1950 [FLAC]/14 Still in the Dark.flac
/XLD/Joe Turner - 2001 - 1949-1950 [LAME MP3 (320)]/14 Still in the Dark.mp3
/XLD/Joe Turner - 2001 - 1949-1950 [LAME MP3 (V0)]/14 Still in the Dark.mp3
Pre-gap length : 00:03:00 Track gain : -3.33 dB
Peak : 0.999939
CRC32 hash (test run) : D20339DF
CRC32 hash : D20339DF
CRC32 hash (skip zero) : 19BA378E
AccurateRip v1 signature : 32D4BE16
AccurateRip v2 signature : 83E14C4B
->Accurately ripped (v2, confidence 2/2)
Statistics
Read error : 0
Jitter error (maybe fixed) : 0
Retry sector count : 0
Damaged sector count : 0

Track 15
Filename : /XLD/Joe Turner - 2001 - 1949-1950 [FLAC]/15 Life Is Just a Card Game.flac
/XLD/Joe Turner - 2001 - 1949-1950 [LAME MP3 (320)]/15 Life Is Just a Card Game.mp3
/XLD/Joe Turner - 2001 - 1949-1950 [LAME MP3 (V0)]/15 Life Is Just a Card Game.mp3
Pre-gap length : 00:03:00 Track gain : 1.40 dB
Peak : 0.630920
CRC32 hash (test run) : 1DEDBBF5
CRC32 hash : 1DEDBBF5
CRC32 hash (skip zero) : E7CDFC7F
AccurateRip v1 signature : BDEA7B1E
AccurateRip v2 signature : A8A5B102
->Accurately ripped (v2, confidence 2/2)
Statistics
Read error : 0
Jitter error (maybe fixed) : 0
Retry sector count : 0
Damaged sector count : 0

Track 16
Filename : /XLD/Joe Turner - 2001 - 1949-1950 [FLAC]/16 Jumpin' at the Jubilee.flac
/XLD/Joe Turner - 2001 - 1949-1950 [LAME MP3 (320)]/16 Jumpin' at the Jubilee.mp3
/XLD/Joe Turner - 2001 - 1949-1950 [LAME MP3 (V0)]/16 Jumpin' at the Jubilee.mp3
Pre-gap length : 00:03:00 Track gain : -6.17 dB
Peak : 0.999969
CRC32 hash (test run) : 0649F7C5
CRC32 hash : 0649F7C5
CRC32 hash (skip zero) : 2E7E3926
AccurateRip v1 signature : D46AAAE5
AccurateRip v2 signature : 11B1AF68
->Accurately ripped (v2, confidence 2/2)
Statistics
Read error : 0
Jitter error (maybe fixed) : 0
Retry sector count : 0
Damaged sector count : 0

Track 17
Filename : /XLD/Joe Turner - 2001 - 1949-1950 [FLAC]/17 Story to Tell.flac
/XLD/Joe Turner - 2001 - 1949-1950 [LAME MP3 (320)]/17 Story to Tell.mp3
/XLD/Joe Turner - 2001 - 1949-1950 [LAME MP3 (V0)]/17 Story to Tell.mp3
Pre-gap length : 00:03:00 Track gain : -6.64 dB
Peak : 0.999939
CRC32 hash (test run) : B9A7654B
CRC32 hash : B9A7654B
CRC32 hash (skip zero) : E8ABCCB1
AccurateRip v1 signature : 5D3F68DF
AccurateRip v2 signature : B642D996
->Accurately ripped (v2, confidence 2/2)
Statistics
Read error : 0
Jitter error (maybe fixed) : 0
Retry sector count : 0
Damaged sector count : 0

Track 18
Filename : /XLD/Joe Turner - 2001 - 1949-1950 [FLAC]/18 Jumpin' Tonight (Midnight Rocking).flac
/XLD/Joe Turner - 2001 - 1949-1950 [LAME MP3 (320)]/18 Jumpin' Tonight (Midnight Rocking).mp3
/XLD/Joe Turner - 2001 - 1949-1950 [LAME MP3 (V0)]/18 Jumpin' Tonight (Midnight Rocking).mp3
Pre-gap length : 00:03:00 Track gain : -7.09 dB
Peak : 0.999939
CRC32 hash (test run) : F218B32B
CRC32 hash : F218B32B
CRC32 hash (skip zero) : 696D2560
AccurateRip v1 signature : 167495C1
AccurateRip v2 signature : CE9AA658
->Accurately ripped (v2, confidence 2/2)
Statistics
Read error : 0
Jitter error (maybe fixed) : 0
Retry sector count : 0
Damaged sector count : 0

Track 19
Filename : /XLD/Joe Turner - 2001 - 1949-1950 [FLAC]/19 Lucille.flac
/XLD/Joe Turner - 2001 - 1949-1950 [LAME MP3 (320)]/19 Lucille.mp3
/XLD/Joe Turner - 2001 - 1949-1950 [LAME MP3 (V0)]/19 Lucille.mp3
Pre-gap length : 00:03:00 Track gain : -6.02 dB
Peak : 0.794312
CRC32 hash (test run) : E4667AA2
CRC32 hash : E4667AA2
CRC32 hash (skip zero) : AB732DED
AccurateRip v1 signature : 402F7E00
AccurateRip v2 signature : 6116BB5D
->Accurately ripped (v2, confidence 2/2)
Statistics
Read error : 0
Jitter error (maybe fixed) : 0
Retry sector count : 0
Damaged sector count : 0

Track 20
Filename : /XLD/Joe Turner - 2001 - 1949-1950 [FLAC]/20 Love My Baby (Little Bitty Baby).flac
/XLD/Joe Turner - 2001 - 1949-1950 [LAME MP3 (320)]/20 Love My Baby (Little Bitty Baby).mp3
/XLD/Joe Turner - 2001 - 1949-1950 [LAME MP3 (V0)]/20 Love My Baby (Little Bitty Baby).mp3
Pre-gap length : 00:03:00 Track gain : -4.06 dB
Peak : 0.630951
CRC32 hash (test run) : E9D244C3
CRC32 hash : E9D244C3
CRC32 hash (skip zero) : 3D264229
AccurateRip v1 signature : BFA1010C
AccurateRip v2 signature : F3A0A377
->Accurately ripped (v2, confidence 2/2)
Statistics
Read error : 0
Jitter error (maybe fixed) : 0
Retry sector count : 0
Damaged sector count : 0

Track 21
Filename : /XLD/Joe Turner - 2001 - 1949-1950 [FLAC]/21 Blues Jumped the Rabbit.flac
/XLD/Joe Turner - 2001 - 1949-1950 [LAME MP3 (320)]/21 Blues Jumped the Rabbit.mp3
/XLD/Joe Turner - 2001 - 1949-1950 [LAME MP3 (V0)]/21 Blues Jumped the Rabbit.mp3
Pre-gap length : 00:03:00 Track gain : -7.43 dB
Peak : 0.794312
CRC32 hash (test run) : A883635A
CRC32 hash : A883635A
CRC32 hash (skip zero) : 0E9A8006
AccurateRip v1 signature : 55A0A0F5
AccurateRip v2 signature : 9E305939
->Accurately ripped (v2, confidence 2/2)
Statistics
Read error : 0
Jitter error (maybe fixed) : 0
Retry sector count : 0
Damaged sector count : 0

Track 22
Filename : /XLD/Joe Turner - 2001 - 1949-1950 [FLAC]/22 The Sun Is Shining.flac
/XLD/Joe Turner - 2001 - 1949-1950 [LAME MP3 (320)]/22 The Sun Is Shining.mp3
/XLD/Joe Turner - 2001 - 1949-1950 [LAME MP3 (V0)]/22 The Sun Is Shining.mp3
Pre-gap length : 00:03:00 Track gain : -7.80 dB
Peak : 0.794281
CRC32 hash (test run) : 029CDC2C
CRC32 hash : 029CDC2C
CRC32 hash (skip zero) : D3D1E66D
AccurateRip v1 signature : 48CCEE41
AccurateRip v2 signature : 8AAC1B8E
->Accurately ripped (v2, confidence 2/2)
Statistics
Read error : 0
Jitter error (maybe fixed) : 0
Retry sector count : 0
Damaged sector count : 0

No errors occurred

End of status report

-----BEGIN XLD SIGNATURE-----
TmuClPudFyu7t082r0ye_rElpK8isQi0Ns7qhig0JLeNGQavJ28BuQAysOj.x8Be0n8TyjAQN31_NsRuvzR.s2z9XHFP7z2nuEiuTDK
-----END XLD SIGNATURE-----

[CUETools log; Date: 2015.03.10. 22:58:54; Version: 2.1.4]
[CTDB TOCID: 5WK47Bw3nnwXlvX91cP6TOcrGvU-] found.
Track | CTDB Status
1 | (1/1) Accurately ripped
2 | (1/1) Accurately ripped
3 | (1/1) Accurately ripped
4 | (1/1) Accurately ripped
5 | (1/1) Accurately ripped
6 | (1/1) Accurately ripped
7 | (1/1) Accurately ripped
8 | (1/1) Accurately ripped
9 | (1/1) Accurately ripped
10 | (1/1) Accurately ripped
11 | (1/1) Accurately ripped
12 | (1/1) Accurately ripped
13 | (1/1) Accurately ripped
14 | (1/1) Accurately ripped
15 | (1/1) Accurately ripped
16 | (1/1) Accurately ripped
17 | (1/1) Accurately ripped
18 | (1/1) Accurately ripped
19 | (1/1) Accurately ripped
20 | (1/1) Accurately ripped
21 | (1/1) Accurately ripped
22 | (1/1) Accurately ripped
[AccurateRip ID: 002e36fd-02e3f980-3d0d8716] found.
Track [ CRC | V2 ] Status
01 [4b465863|45359842] (0+2/2) Accurately ripped
02 [55a3af7f|46537bae] (0+2/2) Accurately ripped
03 [99686ee4|72f201e4] (0+2/2) Accurately ripped
04 [825c3244|9d844a5d] (0+2/2) Accurately ripped
05 [99d3cc5e|30ee7e22] (0+2/2) Accurately ripped
06 [fbcac351|f690f6ea] (0+2/2) Accurately ripped
07 [eb68e00a|4f07a138] (0+2/2) Accurately ripped
08 [984eb791|b8b5d9b8] (0+2/2) Accurately ripped
09 [774e16af|2e049b6a] (0+2/2) Accurately ripped
10 [43f6fb23|1b8c19c9] (0+2/2) Accurately ripped
11 [727ce4c6|e0d5a142] (0+2/2) Accurately ripped
12 [05e29adc|7b5e8a75] (0+2/2) Accurately ripped
13 [0213c0c5|1c3fe4ff] (0+2/2) Accurately ripped
14 [32d4be16|83e14c4b] (0+2/2) Accurately ripped
15 dea7b1e|a8a5b102 (0+2/2) Accurately ripped
16 [d46aaae5|11b1af68] (0+2/2) Accurately ripped
17 [5d3f68df|b642d996] (0+2/2) Accurately ripped
18 [167495c1|ce9aa658] (0+2/2) Accurately ripped
19 [402f7e00|6116bb5d] (0+2/2) Accurately ripped
20 fa1010c|f3a0a377 (0+2/2) Accurately ripped
21 [55a0a0f5|9e305939] (0+2/2) Accurately ripped
22 [48ccee41|8aac1b8e] (0+2/2) Accurately ripped

Track Peak [ CRC32 ] [W/O NULL]
-- 100,0 [82720207] [CD072AAF]
01 99,9 [55139CE8] [16E0DDC3]
02 99,9 [83C4D928] [66F41562]
03 99,9 [6F8E3045] [396E0FBB]
04 99,9 [15B15D05] [3CC25466]
05 99,9 [DEEB1C28] [74D05BBC]
06 99,9 [0AC71D33] [1584C6A7]
07 100,0 [25A75916] [4287E5BA]
08 99,9 [EDFC8539] [107747E5]
09 99,9 [9DD4803D] 336CB91
10 99,9 [D1980B4E] [0804A97B]
11 99,9 [F253D27F] [0B29CCCF]
12 99,9 [F2D29234] [416E0A3D]
13 99,9 [8440CFAA] [DF5EBAD6]
14 99,9 [D20339DF] [19BA378E]
15 63,0 [1DEDBBF5] [E7CDFC7F]
16 100,0 [0649F7C5] [2E7E3926]
17 99,9 9A7654B [E8ABCCB1]
18 99,9 [F218B32B] [696D2560]
19 79,4 [E4667AA2] [AB732DED]
20 63,0 [E9D244C3] [3D264229]
21 79,4 [A883635A] [0E9A8006]
22 79,4 [029CDC2C] [D3D1E66D]

Thx to badbetty
DOWNLOAD LINKS:
Buy Premium To Support Me & Get Resumable Support & Max Speed


Links are Interchangeable - No Password - Single Extraction

Joe Turner - 1949-1950 (Chronological Classics) (2001) Fast Download


Ad2

 
 
 
Dear visitor, you went to the site as an unregistered user. We encourage you to register or enter the site under your name.
 
   
 
 (Votes #: 0)