Advertise
onlinemovies


Nona Hendryx - Skin Diver (1989)

Published On: 15-03-2015, 13:48
http://i63.fastpic.ru/big/2015/0315/26/b0b46b55f2faf2ac783c45cd4d271826.jpg

Nona Hendryx - Skin Diver (1989)
R&B, Pop/Rock, Urban | EAC Rip | FLAC, Img+CUE + LOG + Full Scans-600dpi (JPEG) | 49:19 Min | 308,28 Mb
Label: Private Music (USA) / BMG Ariola (Germany) | Released: 1989

"
A transitional album from the word go, Hendryx plays synthesizer and works with producer and former Tangerine Dream member Peter Baumann, and the result is this lush (at times too lush) pop record that sounds unlike anything else Hendryx recorded. ... Full DescriptionFans of her previous work may be taken aback by this record, but the dense, almost ambient, soundscapes she constructs and her always great singing make this a satisfying foray into uncharted territory.
"

http://i58.fastpic.ru/big/2015/0315/b7/a234401a53f9a461ae70dd3c0c65e8b7.jpg

http://i59.fastpic.ru/big/2015/0315/51/cd1ec0ea72269790b5a855c00f74ab51.jpg


Release of the album: 1989 [LP Private Music, Cat.# 2055-1-P / 210 045, USA]
Release of this CD: 1989 [CD Private Music / BMG Ariola (Germany), Cat.# 260 045 / EAN: 4007192600458]
© & ℗ 1989 Private Inc.
Marketed by BMG Ariola, Munchen GmbH
Printed by TOPAC


Produced by:
Peter Baumann & Nona Hendryx

Backing Vocals - B.J. Nelson (tracks: 2), Kate McGunnigle (tracks: 2), Nona Hendryx (tracks: 2-3, 9), Carol Pope (tracks: 3), Carole Lombard (tracks: 9), Kids (tracks: 9)


Tracklist:

01. Off The Coast Of Love (04:33)
(Nona Hendryx)
02. Women Who Fly (05:13)
(Nona Hendryx)
03. No Emotion (05:30)
(Nona Hendryx)
04. Love Is Kind (03:39)
(Nona Hendryx)
05. Tears (04:33)
(Nona Hendryx)
06. SkinDiver (05:09)
(Nona Hendryx)
07. 6th Sense (06:01)
(Nona Hendryx)
08. Through The Wire (04:45)
(Nona Hendryx)
09. Interior Voices (04:49)
(Nona Hendryx)
10. New Desire (05:07)
(Nona Hendryx)

Exact Audio Copy V1.0 beta 3 from 29. August 2011

EAC extraction logfile from 16. April 2012, 18:48

Nona Hendryx / SkinDiver

Used drive : ATAPI DVD DW 8X16X8X16 Adapter: 0 ID: 2

Read mode : Secure
Utilize accurate stream : Yes
Defeat audio cache : Yes
Make use of C2 pointers : No

Read offset correction

: 618
Overread into Lead-In and Lead-Out : No
Fill up missing offset samples with silence : Yes
Delete leading and trailing silent blocks : No
Null samples used in CRC calculations : Yes
Used interface : Native Win32 interface for Win NT & 2000

Used output format : Internal WAV Routines
Sample format : 44.100 Hz; 16 Bit; Stereo

TOC of the extracted CD Track | Start | Length | Start sector | End sector
-----------
1 | 0:00.00 | 4:33.20 | 0 | 20494
2 | 4:33.20 | 5:13.10 | 20495 | 43979
3 | 9:46.30 | 5:30.05 | 43980 | 68734
4 | 15:16.35 | 3:39.48 | 68735 | 85207
5 | 18:56.08 | 4:33.72 | 85208 | 105754
6 | 23:30.05 | 5:09.45 | 105755 | 128974
7 | 28:39.50 | 6:01.53 | 128975 | 156102
8 | 34:41.28 | 4:45.10 | 156103 | 177487
9 | 39:26.38 | 4:49.60 | 177488 | 199222
10 | 44:16.23 | 5:07.57 | 199223 | 222304

Range status and errors

Selected range Filename C:\BlondStyle\Nona Hendryx - SkinDiver.wav Peak level 97.2 %
Extraction speed 8.1 X
Range quality 100.0 %
Test CRC E13FEE89
Copy CRC E13FEE89
Copy OK

No errors occurred


AccurateRip summary

Track 1 accurately ripped (confidence 5) [5E22DA9C] (AR v1)
Track 2 accurately ripped (confidence 5) [170AAF95] (AR v1)
Track 3 accurately ripped (confidence 5) [598A7401] (AR v1)
Track 4 accurately ripped (confidence 5) [69174019] (AR v1)
Track 5 accurately ripped (confidence 5) [ABCA837C] (AR v1)
Track 6 accurately ripped (confidence 5) [97C3DC94] (AR v1)
Track 7 accurately ripped (confidence 5) [949AA4C2] (AR v1)
Track 8 accurately ripped (confidence 5) [96413E33] (AR v1)
Track 9 accurately ripped (confidence 5) [6E0355D7] (AR v1)
Track 10 accurately ripped (confidence 5) [47E049F5] (AR v1)

All tracks accurately ripped

End of status report

==== Log checksum 7FA6868B1AE4A2F328CDF52228065518942BE096BE8C061FE78B4D289D90554E ====

[Disc ID: 00126fcb-0093ef5b-8c0b940a]
Track [ CRC ] Status
01 [5e22da9c] (05/05) Accurately ripped as in pressing(s) #1
02 [170aaf95] (05/05) Accurately ripped as in pressing(s) #1
03 [598a7401] (05/05) Accurately ripped as in pressing(s) #1
04 [69174019] (05/05) Accurately ripped as in pressing(s) #1
05 [abca837c] (05/05) Accurately ripped as in pressing(s) #1
06 [97c3dc94] (05/05) Accurately ripped as in pressing(s) #1
07 [949aa4c2] (05/05) Accurately ripped as in pressing(s) #1
08 [96413e33] (05/05) Accurately ripped as in pressing(s) #1
09 [6e0355d7] (05/05) Accurately ripped as in pressing(s) #1
10 [47e049f5] (05/05) Accurately ripped as in pressing(s) #1

-
Statistics for: Nona Hendryx - SkinDiver.wav
Number of Samples: 130715340
- left right

Peak value: -0.24 dB --- -0.24 dB
Avg RMS: -15.92 dB --- -15.83 dB
DR channel: 11.88 dB --- 11.88 dB
-

Official DR value: DR12
=
DOWNLOAD LINKS:
Buy Premium To Support Me & Get Resumable Support & Max Speed


Links are Interchangeable - No Password - Single Extraction
[related-news][/related-news]
Dear visitor, you are browsing our website as Guest.
We strongly recommend you to register and login to view hidden contents.

Comments:

Add Comments
 

This site doesn't store any files on its server. We only index and link to content provided by other sites.