2013Zone For Latest Downloads

 
     
 
Legal Downloads » TV Shows » National Geographic - Anne Frank: The Nazi Capture (2015)
Menu
Home Applications
Games Movies
Music TV Shows
Torrents Graphics

Sitemap

RSS
 
Advanced Search
Last News
Site Info
Top Contributors:
  1    supper88 32766
  2    admin 32708
  3    Whisky 10080
  4    Shark_ 8911
  5    creativelivenew 8706
  6    whathesupa 2799
  7    candymypost 840
  8    hvnteam 629
  9    vuong87 3


Articles:
  This Hour: 0
  Today: 17
  This Month: 17
  All Time: 515518


Torrents:
  Today: 0
  Yesterday: 0
  All Time: 156676


Membership:
  Registered Today :0
  This Hour:0
  This Month:0
  Total:14
  Banned:1

{online}
{inform_torrent}
Friend:
Full Download Scripts
Torrent Download
Trend
Trend

Search In Site

TV Shows : National Geographic - Anne Frank: The Nazi Capture (2015)
 

http://i60.fastpic.ru/big/2015/0315/b2/5b84b37c3d69f39e49baac8410d3b9b2.jpg
National Geographic - Anne Frank: The Nazi Capture (2015)
HDTV | 832x464 | .MP4/AVC @ 1150 Kbps | 1h 27mn | Audio: English AAC 128 kbps, 2 channels | Subs: None | 800 MiB
Genre: Documentary

"Anne Frank's world-famous diary comes to an abrupt end shortly before she and her companions in the secret annex were arrested on August 4, 1944. This is the story of what happened next, how Anne became absorbed into the horror of the Nazi camp system. Through eyewitness testimony from camp survivors and historic pictures and film, the brutality and horror of Auschwitz, Sobibor and Bergen-Belsen are revealed. Surviving for just seven months after her arrest, Anne Frank is confronted with disease and depravity while tragically missing the liberation of both of these horrific camps. Two of Anne Frank's friends remember both their school days in Amsterdam and the days before Anne's untimely death at Bergen-Belsen in March of 1945 - shortly before the camp's liberation. But Anne's remarkable diary miraculously survived the war and was published by her father, Otto Frank. It makes for uncomfortable but essential viewing which sheds yet more light on the horrors that innocent people experienced at the hands of the Nazis."

General
Complete name : Anne.Frank.The.Nazi.Capture.mp4
Format : MPEG-4
Format profile : Base Media
Codec ID : isom
File size : 800 MiB
Duration : 1h 27mn
Overall bit rate mode : Variable
Overall bit rate : 1 281 Kbps

Video
ID : 1
Format : AVC
Format/Info : Advanced Video Codec
Format profile : High@L4.1
Format settings, CABAC : Yes
Format settings, ReFrames : 4 frames
Codec ID : avc1
Codec ID/Info : Advanced Video Coding
Duration : 1h 27mn
Bit rate : 1 150 Kbps
Maximum bit rate : 12.2 Mbps
Width : 832 pixels
Height : 464 pixels
Display aspect ratio : 16:9
Original display aspect ratio : 16:9
Frame rate mode : Constant
Frame rate : 25.000 fps
Color space : YUV
Chroma subsampling

: 4:2:0
Bit depth : 8 bits
Scan type : Progressive
Bits/(Pixel*Frame)

: 0.119
Stream size : 718 MiB (90%)
Writing library : x264 core 142 r2431 ac76440
Encoding settings: cabac=1 / ref=4 / deblock=1:-1:-1 / analyse=0x3:0x113 / me=umh / subme=6 / psy=1 / psy_rd=1.00:0.00 / mixed_ref=1 / me_range=16 / chroma_me=1 / trellis=2 / 8x8dct=1 / cqm=0 / deadzone=21,11 / fast_pskip=1 / chroma_qp_offset=-2 / threads=12 / lookahead_threads=2 / sliced_threads=0 / nr=0 / decimate=1 / interlaced=0 / bluray_compat=0 / constrained_intra=0 / bframes=3 / b_pyramid=2 / b_adapt=2 / b_bias=0 / direct=3 / weightb=1 / open_gop=0 / weightp=2 / keyint=250 / keyint_min=25 / scenecut=40 / intra_refresh=0 / rc_lookahead=40 / rc=2pass / mbtree=1 / bitrate=1150 / ratetol=1.0 / qcomp=0.60 / qpmin=10 / qpmax=51 / qpstep=4 / cplxblur=20.0 / qblur=0.5 / vbv_maxrate=50000 / vbv_bufsize=50000 / nal_hrd=none / filler=0 / ip_ratio=1.40 / aq=1:1.00
Encoded date : UTC 2015-03-11 18:11:16
Tagged date : UTC 2015-03-11 18:14:45

Audio
ID : 2
Format : AAC
Format/Info : Advanced Audio Codec
Format profile : HE-AAC / LC
Codec ID : 40
Duration : 1h 27mn
Bit rate mode : Variable
Bit rate : 128 Kbps
Maximum bit rate : 152 Kbps
Channel(s) : 2 channels
Channel positions: Front: L R
Sampling rate : 48.0 KHz / 24.0 KHz
Compression mode : Lossy
Stream size : 79.9 MiB (10%)
Language : English
Encoded date : UTC 2015-03-11 15:55:25
Tagged date : UTC 2015-03-11 18:14:45

Screenshots:

http://i58.fastpic.ru/big/2015/0315/a5/f6469ad744254345d436d92bf77227a5.jpg

http://i59.fastpic.ru/big/2015/0315/2e/e103b5cf11e27e1ef4ff715a381c142e.jpg

http://i64.fastpic.ru/big/2015/0315/a4/c5bb083c7513f766cc129fd10c7742a4.jpg

http://i60.fastpic.ru/big/2015/0315/5a/0e79bc5b0ec9203c975c48e60cbcb75a.jpg


DOWNLOAD LINKS:
Buy Premium To Support Me & Get Resumable Support & Max Speed


Links are Interchangeable - No Password - Single Extraction

National Geographic - Anne Frank: The Nazi Capture (2015) Fast Download



 
 
 
Dear visitor, you went to the site as an unregistered user. We encourage you to register or enter the site under your name.
 
   
 
 (Votes #: 0)