2013Zone For Latest Downloads

 
     
 
Legal Downloads » Music » Neil Campbell, Carlo Bowry, Gordon Ross - Philip Glass: Metamorphosis / Steve Reich: Acoustic Counterpoint (2013)
Menu
Home Applications
Games Movies
Music TV Shows
Torrents Graphics

Sitemap

RSS
 
Advanced Search
Last News
Site Info
Top Contributors:
  1    supper88 32766
  2    admin 32693
  3    Whisky 10080
  4    Shark_ 8911
  5    creativelivenew 8706
  6    whathesupa 2799
  7    candymypost 840
  8    hvnteam 629
  9    vuong87 3


Articles:
  This Hour: 0
  Today: 0
  This Month: 0
  All Time: 515561


Torrents:
  Today: 0
  Yesterday: 0
  All Time: 156684


Membership:
  Registered Today :0
  This Hour:0
  This Month:0
  Total:14
  Banned:1

{online}
{inform_torrent}
Friend:
We Recomend
Trend
Trend
Ad1

Search In Site

Music : Neil Campbell, Carlo Bowry, Gordon Ross - Philip Glass: Metamorphosis / Steve Reich: Acoustic Counterpoint (2013)
 
http://i65.fastpic.ru/big/2015/0315/23/c4570a3d1a5bec97a55af6bf252aad23.jpg

Neil Campbell, Carlo Bowry, Gordon Ross - Philip Glass: Metamorphosis / Steve Reich: Acoustic Counterpoint (2013)
EAC | FLAC | Image (Cue&Log) ~ 218 Mb (incl 5%) | Mp3 (CBR320) ~ 166 Mb (incl 5%) | Scans included
Genre: Minimalism, Classical Guitar | Label: CD Baby | # CBR001 | Time: 00:42:48

"Neil Campbell teams up with Carlo Bowry (Muffin Men/Wizards of Twiddly) and composer/producer Gordon Ross for a release featuring Philip Glass's composition Metamorphosis (beautifully re-arranged as a classical and electric guitar duet), and Steve Reich's Electric Counterpoint performed with multiple classical guitars and basses."

"Two of my favourite Minimalist pieces given a fresh perspective. Deviating from its piano origins with a distinctive blend of fluid fingerpicking and wistful electric swells, Campbell and Bowry's guitar-driven Metamorphosis is a seductively mournful version of a timeless and hypnotic piece. As for Acoustic Counterpoint, it stands comparison with Pat Metheny's defining execution of Reich's thrilling composition and that's a significant achievement in itself.

Review by Tim Bowness
"


Tracklist:

01. Philip Glass - Metamorphosis I (05:55)
02. Philip Glass - Metamorphosis II (07:12)
03. Philip Glass - Metamorphosis III (04:37)
04. Philip Glass - Metamorphosis IV (05:02)
05. Philip Glass - Metamorphosis V (05:19)

06. Steve Reich - Acoustic Counterpoint - I (06:52)
07. Steve Reich - Acoustic Counterpoint - II (03:23)
08. Steve Reich - Acoustic Counterpoint - III (04:24)


Exact Audio Copy V1.0 beta 1 from 15. November 2010

EAC extraction logfile from 25. April 2014, 20:04

Glass & Reich / Metamorphosis & Acoustic Counterpoint

Used drive : Optiarc DVD RW AD-7203A Adapter: 4 ID: 1

Read mode : Secure
Utilize accurate stream : Yes
Defeat audio cache : Yes
Make use of C2 pointers : No

Read offset correction

: 48
Overread into Lead-In and Lead-Out : No
Fill up missing offset samples with silence : Yes
Delete leading and trailing silent blocks : No
Null samples used in CRC calculations : Yes
Used interface : Native Win32 interface for Win NT & 2000

Used output format : User Defined Encoder
Selected bitrate : 128 kBit/s
Quality : High
Add ID3 tag : No
Command line compressor : C:\Program Files\FLAC\flac.exe
Additional command line options : -T "COMMENT=Ripped by GFox" -8 -V %s

TOC of the extracted CD Track | Start | Length | Start sector | End sector
-----------
1 | 0:00.00 | 5:55.45 | 0 | 26669
2 | 5:55.45 | 7:12.37 | 26670 | 59106
3 | 13:08.07 | 4:37.37 | 59107 | 79918
4 | 17:45.44 | 5:02.37 | 79919 | 102605
5 | 22:48.06 | 5:19.34 | 102606 | 126564
6 | 28:07.40 | 6:52.38 | 126565 | 157502
7 | 35:00.03 | 3:23.56 | 157503 | 172783
8 | 38:23.59 | 4:24.57 | 172784 | 192640

Range status and errors

Selected range Filename D:\EAC\Glass & Reich - Metamorphosis & Acoustic Counterpoint.wav Peak level 98.8 %
Extraction speed 0.3 X
Range quality 100.0 %
Test CRC C8EE6CB8
Copy CRC C8EE6CB8
Copy OK

No errors occurred


AccurateRip summary

Track 1 not present in database
Track 2 not present in database
Track 3 not present in database
Track 4 not present in database
Track 5 not present in database
Track 6 not present in database
Track 7 not present in database
Track 8 not present in database

None of the tracks are present in the AccurateRip database

End of status report

==== Log checksum FB5FA20AA642AF3BE1A269D445E57E593FF2EA482B566949E8A75671244B6395 ====

foobar2000 1.2 / Dynamic Range Meter 1.1.1
log date: 2015-03-13 00:41:26

--
Analyzed: Glass & Reich / Metamorphosis & Acoustic Counterpoint
--

DR Peak RMS Duration Track
--
DR13 -1.84 dB -19.89 dB 5:56 01-Philip Glass - Metamorphosis I
DR13 -1.51 dB -17.84 dB 7:12 02-Philip Glass - Metamorphosis II
DR11 -1.03 dB -17.15 dB 4:37 03-Philip Glass - Metamorphosis III
DR11 -0.10 dB -16.42 dB 5:02 04-Philip Glass - Metamorphosis IV
DR12 -0.69 dB -17.49 dB 5:19 05-Philip Glass - Metamorphosis V
DR7 -0.10 dB -11.57 dB 6:53 06-Steve Reich - Acoustic Counterpoint - I
DR7 -0.10 dB -12.00 dB 3:24 07-Steve Reich - Acoustic Counterpoint - II
DR9 -0.10 dB -11.13 dB 4:25 08-Steve Reich - Acoustic Counterpoint - III
--

Number of tracks: 8
Official DR value: DR11

Samplerate: 44100 Hz
Channels: 2
Bits per sample: 16
Bitrate: 635 kbps
Codec: FLAC

http://i67.fastpic.ru/big/2015/0315/bc/37ed73a8eac0d703992c269e6eb560bc.jpg


DOWNLOAD LINKS:
Buy Premium To Support Me & Get Resumable Support & Max Speed


Links are Interchangeable - No Password - Single Extraction

Neil Campbell, Carlo Bowry, Gordon Ross - Philip Glass: Metamorphosis / Steve Reich: Acoustic Counterpoint (2013) Fast Download


Ad2

 
 
 
Dear visitor, you went to the site as an unregistered user. We encourage you to register or enter the site under your name.
 
   
 
 (Votes #: 0)