2013Zone For Latest Downloads

 
     
 
Legal Downloads » Music » Miloš Karadaglić - Mediterráneo (2011)
Menu
Home Applications
Games Movies
Music TV Shows
Torrents Graphics

Sitemap

RSS
 
Advanced Search
Last News
Site Info
Top Contributors:
  1    supper88 32766
  2    admin 32693
  3    Whisky 10080
  4    Shark_ 8911
  5    creativelivenew 8706
  6    whathesupa 2799
  7    candymypost 840
  8    hvnteam 629
  9    vuong87 3


Articles:
  This Hour: 0
  Today: 0
  This Month: 10
  All Time: 515561


Torrents:
  Today: 0
  Yesterday: 0
  All Time: 156684


Membership:
  Registered Today :0
  This Hour:0
  This Month:0
  Total:14
  Banned:1

{online}
{inform_torrent}
Friend:
We Recomend
Trend
Trend
Ad1

Search In Site

Music : Miloš Karadaglić - Mediterráneo (2011)
 
http://i65.fastpic.ru/big/2015/0315/04/79802cd030a688e7d10207465f6ef104.jpg

Miloš Karadaglić - Mediterráneo (2011)
EAC | Flac(Image) + Cue + Log & MP3 CBR 320Kbps
Deutsche Grammophon, B0015579-02 | ~ 266 or 176 Mb | Scans Included
Classical / Easy Listening

"Milos is Milos Karadaglic, a guitarist from Montenegro. The southern Slavic countries have produced quite a number of guitarists, but Milos is the first to get a marketing push from a major label, complete with graphics showing the unshaven, barefoot guitarist ruminating moodily on a beach..."

Miloš Karadaglić - Mediterráneo (2011):

http://i65.fastpic.ru/big/2015/0315/64/6a1ca7404ba179a7c3fc9a8ea3742c64.jpg

Tracklist:

Isaac Albeniz (1860-1909)
01. Suite Espanola, Op.47 No.5: Asturias (Leyenda) - 6:31
Francisco Tarrega (1852-1909)
02. Recuerdos de la Alhambra - 3:47
Isaac Albeniz (1860-1909)
03. Suite Espanola, Op.47 No.3: Sevilla (Sevillanas) - 5:12
Francisco Tarrega (1852-1909)
04. Lagrima - 2:04
Anonymous
05. Romance (arr. Chris Hazell) - 3:02
Francisco Tarrega (1852-1909)
06. Adelita - 1:48
Isaac Albeniz (1860-1909)
07. Suite Espanola, Op.47 No.1: Granada (Serenata) - 5:53
Carlo Domeniconi (1947- )
Koyunbaba, Op.19
08. 1. Moderato - 3:32
09. 2. Mosso - 1:19
10. 3. Cantabile - 3:31
11. 4. Presto - 3:40
Mikis Theodorakis (1925- )
Epitaphios
12. No.3: Mera magiou (A Day in May) - 3:08
13. No.4: Vasilepses, asteri mou (You Have Set, My Star) - 2:22
Francisco Tarrega (1852-1909)
14. Capricho arabe - 5:40
Miguel Llobet (1878-1938)
15. El testament de n'Amelia (Catalan folk song) - 2:25
Enrique Granados (1867-1916)
Danzas Espanolas
16. No.5: Andaluza - 5:15
17. No.2: Oriental - 6:25

Musicians:

Milos Karadaglic - guitar
English Chamber Orchestra, Paul Watkins


Exact Audio Copy V0.99 prebeta 5 from 4. May 2009

Отчёт EAC об извлечении, выполненном 23. июля 2011, 19:07

Various / Mediterraneo - Milos Karadaglic

Дисковод: TSSTcorpCDDVDW SE-S084C Adapter: 2 ID: 0

Режим чтения : Достоверность
?спользование точного потока : Да
Отключение кэ?а аудио : Да
?спользование указателей C2 : Нет

Коррекция смещения при чтении : 6
Способность читать области Lead-in и Lead-out : Нет
Заполнение пропущенных сэмплов ти?иной : Да
Удаление блоков с ти?иной в начале и конце : Нет
При вычислениях CRC использовались нулевые сэмплы : Да
?нтерфейс : Встроенный Win32-интерфейс для Win NT/2000

Выходной формат : Пользовательский кодировщик
Выбранный битрейт : 768 kBit/s
Качество : Высокий
Добавление ID3-тэга : Нет
Утилита сжатия : C:\Program Files (x86)\Exact Audio Copy\Flac\flac.exe
Дополнительные параметры : -6 -V -T "ARTIST=%a" -T "TITLE=%t" -T "ALBUM=%g" -T "DATE=%y" -T "TRACKNUMBER=%n" -T "GENRE=%m" -T "COMMENT=%e" %s -o %d

TOC извлечённого CD Трек | Старт | Длительность | Начальный сектор | Конечный сектор
-------
1 | 0:00.00 | 6:30.72 | 0 | 29321
2 | 6:30.72 | 3:46.49 | 29322 | 46320
3 | 10:17.46 | 5:11.53 | 46321 | 69698
4 | 15:29.24 | 2:04.36 | 69699 | 79034
5 | 17:33.60 | 3:02.25 | 79035 | 92709
6 | 20:36.10 | 1:48.04 | 92710 | 100813
7 | 22:24.14 | 5:53.05 | 100814 | 127293
8 | 28:17.19 | 3:32.24 | 127294 | 143217
9 | 31:49.43 | 1:19.04 | 143218 | 149146
10 | 33:08.47 | 3:30.52 | 149147 | 164948
11 | 36:39.24 | 3:40.24 | 164949 | 181472
12 | 40:19.48 | 3:07.69 | 181473 | 195566
13 | 43:27.42 | 2:22.25 | 195567 | 206241
14 | 45:49.67 | 5:39.68 | 206242 | 231734
15 | 51:29.60 | 2:24.39 | 231735 | 242573
16 | 53:54.24 | 5:15.32 | 242574 | 266230
17 | 59:09.56 | 6:25.23 | 266231 | 295128

Характеристики диапазона извлечения и сообщения об о?ибках

Выбранный диапазон ?мя файла D:\EACData\Milos Karadaglic - Mediterraneo\M.Karadaglic - Mediterraneo.wav Пиковый уровень 100.0 %
Качество диапазона 100.0 %
CRC копии EF5345AE
Копирование... OK

О?ибок не произо?ло


AccurateRip: сводка

Трек 1 точное извлечение (доверие 2) [1D204CD2]
Трек 2 точное извлечение (доверие 2) [A090048B]
Трек 3 точность не определена (достоверность 3) [70E43922], AccurateRip вернул [50136576]
Трек 4 точное извлечение (доверие 2) [C422B793]
Трек 5 точность не определена (достоверность 3) [7115CF74], AccurateRip вернул [498F70F0]
Трек 6 точное извлечение (доверие 2) [E9821CB0]
Трек 7 точность не определена (достоверность 3) [3764D210], AccurateRip вернул [70374D23]
Трек 8 точное извлечение (доверие 2) [6C334AFE]
Трек 9 точность не определена (достоверность 3) [E62C2E5E], AccurateRip вернул [67E2FCBA]
Трек 10 точное извлечение (доверие 2) [9CFAC4C1]
Трек 11 точность не определена (достоверность 3) [0BF3AA12], AccurateRip вернул [10287E01]
Трек 12 точное извлечение (доверие 2) [FEA7D264]
Трек 13 точность не определена (достоверность 3) [6A6430D1], AccurateRip вернул [75E5A498]
Трек 14 точность не определена (достоверность 3) [3AA6E45C], AccurateRip вернул [0ABF8185]
Трек 15 точное извлечение (доверие 2) [676345C4]
Трек 16 точность не определена (достоверность 3) [49A322E8], AccurateRip вернул [246637CE]
Трек 17 точное извлечение (доверие 2) [392723BB]

9 трек(и) скопированы точно
8 трек(и) не удалось проверить на точность

Некоторые треки не про?ли проверку на точность

Конец отчёта

foobar2000 1.2.9 / Dynamic Range Meter 1.1.1
log date: 2015-03-10 03:14:25

--
Analyzed: Milos Karadaglic / Mediterraneo
--

DR Peak RMS Duration Track
--
DR16 0.00 dB -21.02 dB 6:31 01-Albeniz: Suite Espanola, Op.47 No.5: Asturias (Leyenda)
DR12 -8.65 dB -24.17 dB 3:47 02-Tarrega: Recuerdos de la Alhambra
DR18 0.00 dB -23.21 dB 5:12 03-Albeniz: Suite Espanola, Op.47 No.3: Sevilla (Sevillanas)
DR13 -15.06 dB -33.15 dB 2:04 04-Tarrega: Lagrima
DR11 -7.25 dB -22.31 dB 3:02 05-Anonymous: Romance
DR13 -11.99 dB -30.23 dB 1:48 06-Tarrega: Adelita
DR14 -7.02 dB -27.93 dB 5:53 07-Albeniz: Suite Espanola, Op.47 No.1: Granada (Serenata)
DR14 -3.40 dB -23.40 dB 3:32 08-Domeniconi: Koyunbaba, Op.19 No.1: Moderato
DR12 -6.24 dB -23.77 dB 1:19 09-Domeniconi: Koyunbaba, Op.19 No.2: Mosso
DR16 0.00 dB -21.43 dB 3:31 10-Domeniconi: Koyunbaba, Op.19 No.3: Cantabile
DR12 0.00 dB -20.57 dB 3:40 11-Domeniconi: Koyunbaba, Op.19 No.4: Presto
DR14 -4.12 dB -28.36 dB 3:08 12-Theodorakis: Epitaphios No.3: Mera magiou (A Day in May)
DR13 -3.13 dB -20.95 dB 2:22 13-Theodorakis: Epitaphios No.4: Vasilepses, asteri mou (You Have Set, My Star)
DR14 -8.55 dB -28.54 dB 5:40 14-Tarrega: Capricho arabe
DR14 -11.89 dB -31.41 dB 2:25 15-Llobet: El testament de n'Amelia (Catalan folk song)
DR16 -4.83 dB -26.83 dB 5:15 16-Granados: Danzas Espanolas No.5: Andaluza
DR14 -10.72 dB -29.50 dB 6:25 17-Granados: Danzas Espanolas No.2: Oriental
--

Number of tracks: 17
Official DR value: DR14

Samplerate: 44100 Hz
Channels: 2
Bits per sample: 16
Bitrate: 507 kbps
Codec: FLAC

[CUETools log; Date: 13.03.2015 0:56:23; Version: 2.1.4]
[CTDB TOCID: ioibyTy7qs.a8la89KGjDKAyn1A-] found.
Track | CTDB Status
1 | (104/104) Accurately ripped
2 | (103/104) Accurately ripped
3 | (104/104) Accurately ripped
4 | (104/104) Accurately ripped
5 | (104/104) Accurately ripped
6 | (104/104) Accurately ripped
7 | (104/104) Accurately ripped
8 | (104/104) Accurately ripped
9 | (104/104) Accurately ripped
10 | (104/104) Accurately ripped
11 | (104/104) Accurately ripped
12 | (104/104) Accurately ripped
13 | (104/104) Accurately ripped
14 | (103/104) Accurately ripped
15 | (104/104) Accurately ripped
16 | (104/104) Accurately ripped
17 | (103/104) Accurately ripped
[AccurateRip ID: 00280014-01f0ab15-e30f5f11] found.
Track [ CRC | V2 ] Status
01 [1d204cd2|28450538] (018+129/160) Accurately ripped
02 [a090048b|9c88e074] (018+129/160) Accurately ripped
03 [70e43922|50136576] (017+129/159) Accurately ripped
04 [c422b793|055d9050] (018+129/160) Accurately ripped
05 [7115cf74|498f70f0] (017+127/157) Accurately ripped
06 [e9821cb0|ada46e80] (018+129/160) Accurately ripped
07 [3764d210|70374d23] (017+129/159) Accurately ripped
08 [6c334afe|8fcb758d] (018+129/160) Accurately ripped
09 [e62c2e5e|67e2fcba] (017+129/159) Accurately ripped
10 [9cfac4c1|8bb0a513] (018+129/160) Accurately ripped
11 [0bf3aa12|10287e01] (017+128/158) Accurately ripped
12 [fea7d264|8f16ce48] (016+128/157) Accurately ripped
13 [6a6430d1|75e5a498] (017+129/159) Accurately ripped
14 [3aa6e45c|0abf8185] (017+127/157) Accurately ripped
15 [676345c4|c61d23e4] (018+128/159) Accurately ripped
16 [49a322e8|246637ce] (017+127/157) Accurately ripped
17 [392723bb|49477fd5] (018+127/158) Accurately ripped
Offsetted by -646:
01 [f9f91db3] (000/160) No match (V2 was not tested)
02 [67272c83] (000/160) No match (V2 was not tested)
03 [abb2a1c0] (000/159) No match (V2 was not tested)
04 [a6b87b47] (000/160) No match (V2 was not tested)
05 [a04e1654] (000/157) No match (V2 was not tested)
06 [08d306a8] (000/160) No match (V2 was not tested)
07 [a5508e98] (000/159) No match (V2 was not tested)
08 [67adf79c] (000/160) No match (V2 was not tested)
09 [433ec174] (000/159) No match (V2 was not tested)
10 [5ccef781] (000/160) No match (V2 was not tested)
11 [4cc4552c] (000/158) No match (V2 was not tested)
12 [a4e6af02] (000/157) No match (V2 was not tested)
13 [c3461971] (000/159) No match (V2 was not tested)
14 [ae040f8c] (000/157) No match (V2 was not tested)
15 [ef21034b] (000/159) No match (V2 was not tested)
16 c7af61b (000/157) No match (V2 was not tested)
17 [6842147c] (000/158) No match (V2 was not tested)
Offsetted by -12:
01 [d565e9c8] (000/160) No match (V2 was not tested)
02 [69abcce2] (000/160) No match (V2 was not tested)
03 [f915e9b1] (000/159) No match (V2 was not tested)
04 3feb0c8 (000/160) No match (V2 was not tested)
05 [2bb74369] (000/157) No match (V2 was not tested)
06 [e455019c] (000/160) No match (V2 was not tested)
07 [7107bf1c] (000/159) No match (V2 was not tested)
08 [3ee58f43] (000/160) No match (V2 was not tested)
09 [34794fba] (000/159) No match (V2 was not tested)
10 [782da266] (000/160) No match (V2 was not tested)
11 [f203070c] (000/158) No match (V2 was not tested)
12 [4c402957] (000/157) No match (V2 was not tested)
13 [ac8b9258] (000/159) No match (V2 was not tested)
14 [8866bedd] (000/157) No match (V2 was not tested)
15 [1e84bd1a] (000/159) No match (V2 was not tested)
16 [34f72580] (000/157) No match (V2 was not tested)
17 [28a77a86] (000/158) No match (V2 was not tested)

Track Peak [ CRC32 ] [W/O NULL] [ LOG ]
-- 100,0 [EF5345AE] [07414397] CRC32
01 100,0 [C226A5D2] 6023B80
02 36,9 [837F764D] [CD431E9D]
03 100,0 [3857495E] [8CCCE8D8]
04 17,6 [7376D400] [5D3DD075]
05 43,4 [D5F113D9] [13052164]
06 25,1 [52406DE4] [2903EEF5]
07 44,5 [164B01BE] [8DDF4D5F]
08 67,6 [E544F6CC] [7EA027AB]
09 48,7 [2B497540] [65D868FD]
10 100,0 [5898FEB3] 859CE4E
11 100,0 [DE1BFB3F] [1E0B5214]
12 62,2 [130AC1AF] [95614E18]
13 69,7 [501D7EAA] [50B9CA57]
14 37,3 [5EA6F3F3] [C2D46528]
15 25,4 [DD040FFA] 08B96F4
16 57,3 [ADEDEEDB] D8C0EA3
17 29,1 [52D51FC3] [CD0B7097]

http://i68.fastpic.ru/big/2015/0315/11/4571d6f44e19ab779214feca02b38d11.jpg

DOWNLOAD LINKS:
Buy Premium To Support Me & Get Resumable Support & Max Speed


Links are Interchangeable - No Password - Single Extraction

Miloš Karadaglić - Mediterráneo (2011) Fast Download


Ad2

 
 
 
Dear visitor, you went to the site as an unregistered user. We encourage you to register or enter the site under your name.
 
   
 
 (Votes #: 0)