2013Zone For Latest Downloads

 
     
 
Legal Downloads » Music » John McLaughlin - The Heart Of Things (1997) {Verve}
Menu
Home Applications
Games Movies
Music TV Shows
Torrents Graphics

Sitemap

RSS
 
Advanced Search
Last News
Site Info
Top Contributors:
  1    supper88 32766
  2    admin 32693
  3    Whisky 10080
  4    Shark_ 8911
  5    creativelivenew 8706
  6    whathesupa 2799
  7    candymypost 840
  8    hvnteam 629
  9    vuong87 3


Articles:
  This Hour: 0
  Today: 0
  This Month: 10
  All Time: 515561


Torrents:
  Today: 0
  Yesterday: 0
  All Time: 156684


Membership:
  Registered Today :0
  This Hour:0
  This Month:0
  Total:14
  Banned:1

{online}
{inform_torrent}
Friend:
We Recomend
Trend
Trend
Ad1

Search In Site

Music : John McLaughlin - The Heart Of Things (1997) {Verve}
 

http://i59.fastpic.ru/big/2015/0315/0b/c9cbb71dfabfcc28d42c236e4ee3a70b.jpg
John McLaughlin - The Heart Of Things (1997) {Verve}
EAC rip (secure mode) | FLAC (tracks)+CUE+LOG -> 304 Mb | MP3 @320 -> 112 Mb
Full Artwork @ 600 dpi (png) -> 201 Mb | 5% repair rar
© 1997 Polydor / PolyGram / Verve | 539 153-2
Jazz / Fusion / Jazz Rock / Guitar

"Many great musicians experience peaks and valleys throughout their careers. Legendary guitarist John McLaughlin, however, always seems to be perched firmly at the top of his game. Whether with former Mahavishnu bandmates, trios with Paco DeLucia and Al Dimeola, or with contemporary jazz/fusion monsters like Kai Eckhardt and Trilok Gurtu , McLaughlin continues to remain the master of all he surveys. With THE HEART OF THINGS, the guitarist once again unleashes his dynamic sense of color and texture, as well as those unbelievable chops."

http://i66.fastpic.ru/big/2015/0315/26/df2f17e1bacaa76bbbc093ae96427026.jpg


AAJ INFO

Personnel:
John McLaughlin - electric, acoustic and MIDI guitars
Gary Thomas - tenor and soprano sax, flute
Jim Beard - synthesizers, acoustic piano
Matthew Garrison - bass guitar, fretless bass guitar
Dennis Chambers - drums
Victor Williams - percussion
Jean-Paul Celea - acoustic bass on "Acid Jazz"

tracklist:
01 - Acid Jazz
02 - Seven Sisters
03 - Mr. D. C.
04 - Fallen Angels
05 - Healing Hands
06 - When Love Is Far Away

Exact Audio Copy V1.0 beta 4 from 7. December 2014

EAC extraction logfile from 10. March 2015, 19:47

John McLaughlin / The Heart Of Things

Used drive : TSSTcorpCDDVDW SE-208DB Adapter: 1 ID: 1

Read mode : Secure
Utilize accurate stream : Yes
Defeat audio cache : Yes
Make use of C2 pointers : No

Read offset correction

: 6
Overread into Lead-In and Lead-Out : No
Fill up missing offset samples with silence : Yes
Delete leading and trailing silent blocks : No
Null samples used in CRC calculations : Yes
Used interface : Native Win32 interface for Win NT & 2000
Gap handling : Appended to previous track

Used output format : User Defined Encoder
Selected bitrate : 1024 kBit/s
Quality : High
Add ID3 tag : No
Command line compressor : C:\Program Files (x86)\FLAC Frontend\tools\flac.exe
Additional command line options : -8 -V -T "ARTIST=%artist%" -T "TITLE=%title%" -T "ALBUM=%albumtitle%" -T "DATE=%year%" -T "TRACKNUMBER=%tracknr%" -T "TOTALTRACKS=%numtracks%" -T "GENRE=%genre%" -T "ALBUMARTIST=%albumartist%" -T "ALBUM ARTIST=%albumartist%" -T "COMMENT=EAC Secure Mode, Test & Copy, AccurateRip, FLAC -8" %source%

TOC of the extracted CD Track | Start | Length | Start sector | End sector
-----------
1 | 0:00.00 | 8:18.22 | 0 | 37371
2 | 8:18.22 | 10:17.18 | 37372 | 83664
3 | 18:35.40 | 7:07.00 | 83665 | 115689
4 | 25:42.40 | 9:29.72 | 115690 | 158436
5 | 35:12.37 | 7:36.38 | 158437 | 192674
6 | 42:49.00 | 4:29.47 | 192675 | 212896

Track 1 Filename D:\_EAC\John McLaughlin - The Heart Of Things (1997) {Verve}\01 - Acid Jazz.wav Pre-gap length 0:00:02.00 Peak level 96.6 %
Extraction speed 1.1 X
Track quality 100.0 %
Test CRC C0AA4963
Copy CRC C0AA4963
Accurately ripped (confidence 31) [1945CF74] (AR v2)
Copy OK

Track 2 Filename D:\_EAC\John McLaughlin - The Heart Of Things (1997) {Verve}\02 - Seven Sisters.wav Pre-gap length 0:00:02.30 Peak level 96.5 %
Extraction speed 1.4 X
Track quality 100.0 %
Test CRC 78B7A07D
Copy CRC 78B7A07D
Accurately ripped (confidence 33) [CF71AE91] (AR v2)
Copy OK

Track 3 Filename D:\_EAC\John McLaughlin - The Heart Of Things (1997) {Verve}\03 - Mr. D. C..wav Pre-gap length 0:00:02.70 Peak level 97.6 %
Extraction speed 1.5 X
Track quality 100.0 %
Test CRC 14A5C6E8
Copy CRC 14A5C6E8
Accurately ripped (confidence 33) B26DFC5 (AR v2)
Copy OK

Track 4 Filename D:\_EAC\John McLaughlin - The Heart Of Things (1997) {Verve}\04 - Fallen Angels.wav Pre-gap length 0:00:01.40 Peak level 99.9 %
Extraction speed 1.6 X
Track quality 100.0 %
Test CRC 55AF7A28
Copy CRC 55AF7A28
Accurately ripped (confidence 33) [1C3F2365] (AR v2)
Copy OK

Track 5 Filename D:\_EAC\John McLaughlin - The Heart Of Things (1997) {Verve}\05 - Healing Hands.wav Pre-gap length 0:00:02.40 Peak level 96.5 %
Extraction speed 1.6 X
Track quality 99.9 %
Test CRC 25EE29DA
Copy CRC 25EE29DA
Accurately ripped (confidence 33) [3E8286DD] (AR v2)
Copy OK

Track 6 Filename D:\_EAC\John McLaughlin - The Heart Of Things (1997) {Verve}\06 - When Love Is Far Away.wav Pre-gap length 0:00:02.50 Peak level 52.8 %
Extraction speed 1.7 X
Track quality 100.0 %
Test CRC 6EB763EA
Copy CRC 6EB763EA
Accurately ripped (confidence 32) [CC6CBA4B] (AR v2)
Copy OK

All tracks accurately ripped

No errors occurred

End of status report

==== Log checksum 3607BB364DAD81F51F423BFDF3B53EFD27CECB5A2486421F39CEDC49B89CA8E6 ====

http://i64.fastpic.ru/big/2015/0315/76/4b85c45cff3934fbac562d05ab3f4976.jpg

http://i65.fastpic.ru/big/2015/0315/d0/4371d5734b5eb07c0f1ff88e4f2c53d0.jpg


DOWNLOAD LINKS:
Buy Premium To Support Me & Get Resumable Support & Max Speed


Links are Interchangeable - No Password - Single Extraction

John McLaughlin - The Heart Of Things (1997) {Verve} Fast Download


Ad2

 
 
 
Dear visitor, you went to the site as an unregistered user. We encourage you to register or enter the site under your name.
 
   
 
 (Votes #: 0)