2013Zone For Latest Downloads

 
     
 
Legal Downloads » Music » Kashif - Condition Of The Heart (1985) [2012, Remastered & Expanded Edition]
Menu
Home Applications
Games Movies
Music TV Shows
Torrents Graphics

Sitemap

RSS
 
Advanced Search
Last News
Site Info
Top Contributors:
  1    supper88 32766
  2    admin 32693
  3    Whisky 10080
  4    Shark_ 8911
  5    creativelivenew 8706
  6    whathesupa 2799
  7    candymypost 840
  8    hvnteam 629
  9    vuong87 3


Articles:
  This Hour: 0
  Today: 0
  This Month: 0
  All Time: 515561


Torrents:
  Today: 0
  Yesterday: 0
  All Time: 156684


Membership:
  Registered Today :0
  This Hour:0
  This Month:0
  Total:14
  Banned:1

{online}
{inform_torrent}
Friend:
We Recomend
Trend
Trend
Ad1

Search In Site

Music : Kashif - Condition Of The Heart (1985) [2012, Remastered & Expanded Edition]
 
http://i57.fastpic.ru/big/2015/0315/c7/236e38215a48f3400d22de82efdf98c7.jpg

Kashif - Condition Of The Heart (1985) [2012, Remastered & Expanded Edition]
R&B, Soul/Funk, Electronic | EAC Rip | FLAC, Img+CUE + LOG + Full Scans-600dpi (JPEG) | 55:50 Min | 455,78 Mb
Label: Funkytowngrooves / Arista Records (USA) | Released: 2012, October

"
Condition of the Heart is the third studio album from Kashif. The album was released in 1985 on Arista Records. The album includes the hit singles "Condition of the Heart", "Dancing in the Dark (Heart to Heart)" and Anti-apartheid song "Botha Botha". The album was digitally remastered for the first time in 2012 by Funky Town Grooves with three bonus tracks.
"

http://i57.fastpic.ru/big/2015/0315/2b/eee5abe706a5fb87643f4ae18a91022b.jpg

http://i63.fastpic.ru/big/2015/0315/fd/e049809915d8df030903bc135b9d3ffd.jpg


Release of the album: 1985 [LP Arista, Cat.# AL 8-8385, USA]
Release of this CD: 2012, October [CD Funkytowngrooves (USA), Cat.# FTG-320 / EAN: 0851903003908]
℗ 2012 Sony Music Entertainment, This compilation © 2012 Funkytowngrooves USA
Distributed by Funkytowngrooves USA.
Manufactured by Sony Music Entertainment

Note: Remastered from the Original Master Tapes with 3 Bonus Tracks

Producers - Kashif, Wayne A. Brathwaite (tracks: 10, 11)
Executive-Producer - Kashif (tracks: 10, 11)
Photography By - Aaron Rapoport

Backing Vocals:
Andrea Dawkins Duvernex, Angela Clemmons, Audrey Wheeler, B.J. Nelson, Cindy Mizelle, Kashif, Keija Bostic, Melisa Morgan, Shelley Scruggs, Jeff Smith, Yogi Lee


Tracklist:

01. I Wanna Have Love With You (05:05)
(Kashif)
02. Dancing In The Dark (Heart To Heart) (04:22)
(Brian Morgan, Kashif, Shelley Scruggs)
03. Condition Of The Heart (04:43)
(Kashif)
04. Say You Love Me (04:44)
(Kashif)
05. Movie Song (05:06)
(Brian Morgan, Kashif, Shelley Scruggs)
06. Stay The Night (04:35)
(Kashif)
07. Weakness (04:49)
(Brian Morgan, Kashif, Shelley Scruggs)
08. Botha Botha (Apartheid Song) (03:52)
(Bashiri Johnson, Kashif)

Bonus Tracks:

09. Condition Of The Heart (Extended Version) (05:59)
(Kashif)
10. Love On The Rise (Extended Remix) (with Kenny G) (07:01)
(Dietrich Coley, Wayne A. Brathwaite)
11. Love On The Rise (Instrumental) (with Kenny G) (05:34)
(Wayne A. Brathwaite)

Exact Audio Copy V1.0 beta 3 from 29. August 2011

EAC extraction logfile from 18. May 2013, 20:32

Kashif / Condition Of The Heart (Expanded Edition)

Used drive : ATAPI DVD DW 8X16X8X16 Adapter: 0 ID: 2

Read mode : Secure
Utilize accurate stream : Yes
Defeat audio cache : Yes
Make use of C2 pointers : No

Read offset correction

: 618
Overread into Lead-In and Lead-Out : No
Fill up missing offset samples with silence : Yes
Delete leading and trailing silent blocks : No
Null samples used in CRC calculations : Yes
Used interface : Native Win32 interface for Win NT & 2000

Used output format : Internal WAV Routines
Sample format : 44.100 Hz; 16 Bit; Stereo

TOC of the extracted CD Track | Start | Length | Start sector | End sector
-----------
1 | 0:00.43 | 5:05.37 | 43 | 22954
2 | 5:06.05 | 4:22.42 | 22955 | 42646
3 | 9:28.47 | 4:43.35 | 42647 | 63906
4 | 14:12.07 | 4:44.02 | 63907 | 85208
5 | 18:56.09 | 5:06.49 | 85209 | 108207
6 | 24:02.58 | 4:35.05 | 108208 | 128837
7 | 28:37.63 | 4:49.72 | 128838 | 150584
8 | 33:27.60 | 3:52.73 | 150585 | 168057
9 | 37:20.58 | 5:59.74 | 168058 | 195056
10 | 43:20.57 | 7:01.07 | 195057 | 226638
11 | 50:21.64 | 5:34.10 | 226639 | 251698

Range status and errors

Selected range Filename C:\BlondStyle\Condition Of The Heart (Expanded Edition).wav Peak level 100.0 %
Extraction speed 9.1 X
Range quality 100.0 %
Test CRC DDF3F5C2
Copy CRC DDF3F5C2
Copy OK

No errors occurred


AccurateRip summary

Track 1 not present in database
Track 2 not present in database
Track 3 not present in database
Track 4 not present in database
Track 5 not present in database
Track 6 not present in database
Track 7 not present in database
Track 8 not present in database
Track 9 not present in database
Track 10 not present in database
Track 11 not present in database

None of the tracks are present in the AccurateRip database

End of status report

==== Log checksum D93E1C9DBCA39EB30180B4E38627A4B89341BA4629CCABFFB7879EC36CF876B5 ====

-
Statistics for: Condition Of The Heart (Expanded Edition).wav
Number of Samples: 147999012
- left right

Peak value: over --- over
Avg RMS: -11.40 dB --- -11.83 dB
DR channel: 9.11 dB --- 9.51 dB
-

Official DR value: DR9
=
DOWNLOAD LINKS:
Buy Premium To Support Me & Get Resumable Support & Max Speed


Links are Interchangeable - No Password - Single Extraction

Kashif - Condition Of The Heart (1985) [2012, Remastered & Expanded Edition] Fast Download


Ad2

 
 
 
Dear visitor, you went to the site as an unregistered user. We encourage you to register or enter the site under your name.
 
   
 
 (Votes #: 0)