2013Zone For Latest Downloads

 
     
 
Legal Downloads » Music » NY Loose - Year of the Rat (1996)
Menu
Home Applications
Games Movies
Music TV Shows
Torrents Graphics

Sitemap

RSS
 
Advanced Search
Last News
Site Info
Top Contributors:
  1    supper88 32766
  2    admin 32693
  3    Whisky 10080
  4    Shark_ 8911
  5    creativelivenew 8706
  6    whathesupa 2799
  7    candymypost 840
  8    hvnteam 629
  9    vuong87 3


Articles:
  This Hour: 0
  Today: 0
  This Month: 10
  All Time: 515561


Torrents:
  Today: 0
  Yesterday: 0
  All Time: 156684


Membership:
  Registered Today :0
  This Hour:0
  This Month:0
  Total:14
  Banned:1

{online}
{inform_torrent}
Friend:
We Recomend
Trend
Trend
Ad1

Search In Site

Music : NY Loose - Year of the Rat (1996)
 
http://i66.fastpic.ru/big/2015/0315/72/056d4c4e59d6b758955ab6214fda6772.jpg

NY Loose - Year of the Rat (1996)
EAC | FLAC | Image (Cue&Log) ~ 338 Mb (incl 5%) | Mp3 (CBR320) ~ 126 Mb (incl 5%) | Scans included
Genre: Punk Rock, Garage Rock, Alternative Rock | Label: Hollywood Records | # HR-62049-2 | Time: 00:38:57

"On its one and only major-label release, Year of the Rat, NY Loose delivers powerful performances of a punk-pop musical blend that have nothing whatsoever to do with other '90s platinum purveyors of radio punk. Instead of simply being snide or just plain goofy rock stars like Green Day or the Offspring, NY Loose emits a refreshingly punk attitude of contrariness, if not actual rebellion, on this 1996 release. Founding members Brijitte West (guitars and vocals) and Danny Nordahl (bass) are joined on Year of the Rat by drummer Pete Lloyd and guitarist Marc Diamond. Each member seems versed well enough in the standard instrumental punk vocabulary, but West's saucy delivery and upfront lyrics make NY Loose special."



Tracklist:

01. Pretty Suicide (02:29)
02. Rip Me Up (03:53)
03. Broken (03:02)
04. Apathy is Golden (02:13)
05. Dragonfly (02:56)
06. Sunday Morning (03:15)
07. Detonator (02:12)
08. Song For Margo (03:38)
09. Kiss My Wheels (02:43)
10. Hide (03:41)
11. Trash the Given Chance (02:56)
12. Spit (05:52)


Exact Audio Copy V0.99 prebeta 5 from 4. May 2009

Отчёт EAC об извлечении, выполненном 20. января 2011, 19:25

NY Loose / Year of the Rat

Дисковод: TSSTcorpCDDVDW SH-S203B Adapter: 4 ID: 0

Режим чтения : Достоверность
?спользование точного потока : Да
Отключение кэ?а аудио : Да
?спользование указателей C2 : Нет

Коррекция смещения при чтении : 6
Способность читать области Lead-in и Lead-out : Нет
Заполнение пропущенных сэмплов ти?иной : Да
Удаление блоков с ти?иной в начале и конце : Нет
При вычислениях CRC использовались нулевые сэмплы : Да
?нтерфейс : Встроенный Win32-интерфейс для Win NT/2000

Выходной формат : Пользовательский кодировщик
Выбранный битрейт : 1024 kBit/s
Качество : Высокий
Добавление ID3-тэга : Нет
Утилита сжатия : C:\Program Files\foobar2000\FLAC\flac.exe
Дополнительные параметры : -T "DATE=%y" -T "GENRE=%m" -8 -V %s

TOC извлечённого CD Трек | Старт | Длительность | Начальный сектор | Конечный сектор
-------
1 | 0:00.00 | 2:29.57 | 0 | 11231
2 | 2:29.57 | 3:53.65 | 11232 | 28771
3 | 6:23.47 | 3:02.50 | 28772 | 42471
4 | 9:26.22 | 2:13.05 | 42472 | 52451
5 | 11:39.27 | 2:56.53 | 52452 | 65704
6 | 14:36.05 | 3:15.55 | 65705 | 80384
7 | 17:51.60 | 2:12.35 | 80385 | 90319
8 | 20:04.20 | 3:38.20 | 90320 | 106689
9 | 23:42.40 | 2:43.45 | 106690 | 118959
10 | 26:26.10 | 3:41.62 | 118960 | 135596
11 | 30:07.72 | 2:56.58 | 135597 | 148854
12 | 33:04.55 | 5:52.47 | 148855 | 175301

Характеристики диапазона извлечения и сообщения об о?ибках

Выбранный диапазон ?мя файла G:\Музыка\АЛЬБОМЫ РАЗНЫХ ?СПОЛН?ТЕЛЕЙ\NYloose - Year of the Rat 1996\NY Loose - Year of the Rat.wav Пиковый уровень 100.0 %
Качество диапазона 100.0 %
CRC теста 9A4E1118
CRC копии 9A4E1118
Копирование... OK

О?ибок не произо?ло


AccurateRip: сводка

Трек 1 точное извлечение (доверие 3) [420E7516]
Трек 2 точное извлечение (доверие 3) [A0CD4A3B]
Трек 3 точное извлечение (доверие 3) [8C664BBE]
Трек 4 точное извлечение (доверие 3) [65A5FFA8]
Трек 5 точное извлечение (доверие 3) [D9030A5B]
Трек 6 точное извлечение (доверие 3) [710DB1CC]
Трек 7 точное извлечение (доверие 3) [F19E59CE]
Трек 8 точное извлечение (доверие 3) [5E53389B]
Трек 9 точное извлечение (доверие 3) AB022ED
Трек 10 точное извлечение (доверие 3) [77FFC020]
Трек 11 точное извлечение (доверие 3) [564CEF26]
Трек 12 точное извлечение (доверие 3) [921C6E2A]

Все треки извлечены точно

Конец отчёта

foobar2000 1.2 / Dynamic Range Meter 1.1.1
log date: 2015-03-12 23:48:41

--
Analyzed: NY Loose / Year of the Rat
--

DR Peak RMS Duration Track
--
DR6 0.00 dB -7.20 dB 2:30 01-Pretty Suicide
DR6 0.00 dB -8.24 dB 3:54 02-Rip Me Up
DR7 0.00 dB -7.64 dB 3:03 03-Broken
DR6 0.00 dB -7.84 dB 2:13 04-Apathy is Golden
DR7 0.00 dB -8.90 dB 2:57 05-Dragonfly
DR9 0.00 dB -10.23 dB 3:16 06-Sunday Morning
DR6 0.00 dB -7.03 dB 2:12 07-Detonator
DR6 0.00 dB -7.60 dB 3:38 08-Song For Margo
DR5 0.00 dB -6.37 dB 2:44 09-Kiss My Wheels
DR6 0.00 dB -8.62 dB 3:42 10-Hide
DR6 0.00 dB -7.09 dB 2:57 11-Trash the Given Chance
DR7 0.00 dB -9.74 dB 5:53 12-Spit
--

Number of tracks: 12
Official DR value: DR7

Samplerate: 44100 Hz
Channels: 2
Bits per sample: 16
Bitrate: 1047 kbps
Codec: FLAC

http://i59.fastpic.ru/big/2015/0315/f9/423a10af39c5abb10d748e4feae955f9.jpg

http://i58.fastpic.ru/big/2015/0315/44/7f72ef2239146b5cc53745247a86e144.jpg



DOWNLOAD LINKS:
Buy Premium To Support Me & Get Resumable Support & Max Speed


Links are Interchangeable - No Password - Single Extraction

NY Loose - Year of the Rat (1996) Fast Download


Ad2

 
 
 
Dear visitor, you went to the site as an unregistered user. We encourage you to register or enter the site under your name.
 
   
 
 (Votes #: 0)