2013Zone For Latest Downloads

 
     
 
Legal Downloads » Music » Terry Manning - Home Sweet Home (1970) Remastered 2006
Menu
Home Applications
Games Movies
Music TV Shows
Torrents Graphics

Sitemap

RSS
 
Advanced Search
Last News
Site Info
Top Contributors:
  1    supper88 32766
  2    admin 32693
  3    Whisky 10080
  4    Shark_ 8911
  5    creativelivenew 8706
  6    whathesupa 2799
  7    candymypost 840
  8    hvnteam 629
  9    vuong87 3


Articles:
  This Hour: 0
  Today: 0
  This Month: 30
  All Time: 515561


Torrents:
  Today: 0
  Yesterday: 0
  All Time: 156684


Membership:
  Registered Today :0
  This Hour:0
  This Month:0
  Total:14
  Banned:1

{online}
{inform_torrent}
Friend:
We Recomend
Trend
Trend
Ad1

Search In Site

Music : Terry Manning - Home Sweet Home (1970) Remastered 2006
 
http://i57.fastpic.ru/big/2015/0315/6f/85435d108cc81b95aef6bcfaf09b406f.jpg

Terry Manning - Home Sweet Home (1970) Remastered 2006
EAC | FLAC | Tracks (Cue&Log) ~ 372 Mb (incl 5%) | Mp3 (CBR320) ~ 153 Mb (incl 5%) | Scans included
Genre: Psychedelic Rock, Blue-Eyed Soul, Blues-Rock | Label: Sunbeam | # SBRCD5023 | Time: 00:47:35

"Featuring the recording debut of Big Star's Chris Bell, this outrageously enjoyable blend of psychedelic rock, Memphis soul and dirty R&B kicks off with one of the most audacious and successful Beatles covers ever. Terry Manning was a key figure in '60s Memphis music-making -- from his experience at Stax (learning from the likes of Isaac Hayes, Ike & Tina Turner, Willie Mitchell, Booker T. Jones, Eddie Floyd, Al Green, Otis Redding, The Boxtops, Percy Sledge, The Staple Singers, Mississippi John Hurt, etc.) he became the Ardent Studios engineer/producer, and co-owner of the Ardent Records label that released the Big Star albums. Originally released on Stax's Enterprise label, this record is Manning's only solo work (he engineered, produced, and played almost all of the instruments) and features a feast of fuzz guitar, sweet vocals and funky rhythms that makes its long overdue CD debut here (complete with full liner notes and three bonus tracks), Home Sweet Home is a tongue-in-cheek blast from start to finish, and guaranteed to thrill fans."

"Terry Manning's 1970 solo album Home Sweet Home started off as something of a joke when he recorded a deliberately over-the-top psychedelic version of the Box Tops' "Choo Choo Train." When Stax Records asked for a whole album of such material, Home Sweet Home was the result. Like "Choo Choo Train" (included on the final LP), the album as a whole was over-the-top psychedelia, and indeed over-the-top mimicking of several manners of late-'60s trendy excess in hard rock, blues-rock, and soul music. There's a tongue firmly planted in its cheek, however, which keeps it from being as tough an exercise to sit through as the records it was poking fun at -- though only just. Whether it's a ten-minute version of the Beatles' "Savoy Truffle" (with early Moog effects), loving Manning-penned homages/satires of Jerry Lee Lewis ("Wild Wild Rocker") and late-'60s dance-soul ("Trashy Dog"), or knowingly slightly hysterical covers of old blues tunes ("I Ain't Got You") and, again, the Beatles ("I Wanna Be Your Man"), he plows his way through the tracks with the fervid energy of a man who can't decide whether he's pulling off an inside joke or a work of genius. As is so often the case with these kind of projects, however, it's much more an inside joke than it is a work of genius. That's not to say it isn't amusing, and it does hold some interest for serious Big Star fans for marking the first proper studio appearances by guitarist Chris Bell. Like many somewhat silly, somewhat inspired jokes, though, listeners will most likely find the humorous novelty wearing off after one or two listens.

Review by Richie Unterberger, Allmusic.com
"




Tracklist:

01. Savoy Truffle (10:08)
02. Guess Things Happen That Way (03:22)
03. Trashy Dog (03:00)
04. Wild Wild Rocker (02:27)
05. Choo Choo Train (04:39)
06. I Ain't Got You (04:16)
07. Sour Mash (03:59)
08. I Wanna Be Your Man (05:02)
09. Talk Talk (02:27)
10. One After 909 (03:01)
11. I Can't Stand the Rain (Live) (05:00)


Exact Audio Copy V1.0 beta 3 from 29. August 2011

EAC extraction logfile from 19. December 2012, 10:20

Terry Manning / Home Sweet Home

Used drive : HP DVD Writer 557r Adapter: 1 ID: 0

Read mode : Secure
Utilize accurate stream : Yes
Defeat audio cache : Yes
Make use of C2 pointers : No

Read offset correction

: 6
Overread into Lead-In and Lead-Out : No
Fill up missing offset samples with silence : Yes
Delete leading and trailing silent blocks : No
Null samples used in CRC calculations : Yes
Used interface : Native Win32 interface for Win NT & 2000
Gap handling : Appended to previous track

Used output format : User Defined Encoder
Selected bitrate : 1024 kBit/s
Quality : High
Add ID3 tag : No
Command line compressor : C:\Program Files\Exact Audio Copy\Flac\flac.exe
Additional command line options : -8 -V -T "ARTIST=%artist%" -T "TITLE=%title%" -T "ALBUM=%albumtitle%" -T "DATE=%year%" -T "TRACKNUMBER=%tracknr%" -T "GENRE=%genre%" -T "PERFORMER=%albuminterpret%" -T "COMPOSER=%composer%" %haslyrics%--tag-from-file=LYRICS="%lyricsfile%"%haslyrics% -T "ALBUMARTIST=%albumartist%" -T "ALBUM ARTIST=%albumartist%" -T "DISCNUMBER=%cdnumber%" -T "TOTALDISCS=%totalcds%" -T "TOTALTRACKS=%numtracks%" -T "COMMENT=%comment%" %source% -o %dest%

TOC of the extracted CD Track | Start | Length | Start sector | End sector
-----------
1 | 0:00.00 | 10:08.49 | 0 | 45648
2 | 10:08.49 | 3:23.64 | 45649 | 60937
3 | 13:32.38 | 3:01.02 | 60938 | 74514
4 | 16:33.40 | 2:28.69 | 74515 | 85683
5 | 19:02.34 | 4:40.20 | 85684 | 106703
6 | 23:42.54 | 4:16.04 | 106704 | 125907
7 | 27:58.58 | 4:00.50 | 125908 | 143957
8 | 31:59.33 | 5:02.21 | 143958 | 166628
9 | 37:01.54 | 2:28.39 | 166629 | 177767
10 | 39:30.18 | 3:04.27 | 177768 | 191594
11 | 42:34.45 | 5:00.07 | 191595 | 214101

Track 1 Filename C:\Users\ElProf\Music\eac rips\Terry Manning - Home Sweet Home RM FLAC\01 - Savoy Truffle.wav Pre-gap length 0:00:02.00 Peak level 97.6 %
Extraction speed 2.6 X
Track quality 100.0 %
Test CRC 9CE8D073
Copy CRC 9CE8D073
Accurately ripped (confidence 1) [721A4FB0] (AR v2)
Copy OK

Track 2 Filename C:\Users\ElProf\Music\eac rips\Terry Manning - Home Sweet Home RM FLAC\02 - Guess Things Happen That Way.wav Peak level 97.6 %
Extraction speed 2.2 X
Track quality 99.9 %
Test CRC 1BE53C32
Copy CRC 1BE53C32
Accurately ripped (confidence 1) [96B49FAC] (AR v2)
Copy OK

Track 3 Filename C:\Users\ElProf\Music\eac rips\Terry Manning - Home Sweet Home RM FLAC\03 - Trashy Dog.wav Pre-gap length 0:00:01.00 Peak level 97.6 %
Extraction speed 2.8 X
Track quality 100.0 %
Test CRC 1B1BE887
Copy CRC 1B1BE887
Accurately ripped (confidence 1) [086684C0] (AR v2)
Copy OK

Track 4 Filename C:\Users\ElProf\Music\eac rips\Terry Manning - Home Sweet Home RM FLAC\04 - Wild Wild Rocker.wav Pre-gap length 0:00:01.00 Peak level 97.6 %
Extraction speed 2.8 X
Track quality 100.0 %
Test CRC 35ED197A
Copy CRC 35ED197A
Accurately ripped (confidence 1) [6BD48900] (AR v2)
Copy OK

Track 5 Filename C:\Users\ElProf\Music\eac rips\Terry Manning - Home Sweet Home RM FLAC\05 - Choo Choo Train.wav Pre-gap length 0:00:01.00 Peak level 97.6 %
Extraction speed 3.2 X
Track quality 100.0 %
Test CRC 0B3B4760
Copy CRC 0B3B4760
Accurately ripped (confidence 1) BDDE2BF (AR v2)
Copy OK

Track 6 Filename C:\Users\ElProf\Music\eac rips\Terry Manning - Home Sweet Home RM FLAC\06 - I Ain't Got You.wav Pre-gap length 0:00:01.00 Peak level 97.6 %
Extraction speed 3.4 X
Track quality 100.0 %
Test CRC F7C7FE90
Copy CRC F7C7FE90
Accurately ripped (confidence 1) [81E38679] (AR v2)
Copy OK

Track 7 Filename C:\Users\ElProf\Music\eac rips\Terry Manning - Home Sweet Home RM FLAC\07 - Sour Mash.wav Peak level 97.6 %
Extraction speed 2.9 X
Track quality 99.9 %
Test CRC 5019B832
Copy CRC 5019B832
Accurately ripped (confidence 1) [50657B20] (AR v2)
Copy OK

Track 8 Filename C:\Users\ElProf\Music\eac rips\Terry Manning - Home Sweet Home RM FLAC\08 - I Wanna Be Your Man.wav Pre-gap length 0:00:01.00 Peak level 97.0 %
Extraction speed 3.8 X
Track quality 100.0 %
Test CRC 6C41F265
Copy CRC 6C41F265
Accurately ripped (confidence 1) [269A41B2] (AR v2)
Copy OK

Track 9 Filename C:\Users\ElProf\Music\eac rips\Terry Manning - Home Sweet Home RM FLAC\09 - Talk Talk.wav Peak level 100.0 %
Extraction speed 3.5 X
Track quality 100.0 %
Test CRC 7438D9CE
Copy CRC 7438D9CE
Accurately ripped (confidence 1) [ACEA734B] (AR v2)
Copy OK

Track 10 Filename C:\Users\ElProf\Music\eac rips\Terry Manning - Home Sweet Home RM FLAC\10 - One After 909.wav Pre-gap length 0:00:01.00 Peak level 100.0 %
Extraction speed 3.8 X
Track quality 100.0 %
Test CRC ABD1C5A7
Copy CRC ABD1C5A7
Accurately ripped (confidence 1) [5A0DD16F] (AR v2)
Copy OK

Track 11 Filename C:\Users\ElProf\Music\eac rips\Terry Manning - Home Sweet Home RM FLAC\11 - I Can't Stand the Rain (Live).wav Pre-gap length 0:00:03.00 Peak level 98.2 %
Extraction speed 3.5 X
Track quality 99.9 %
Test CRC 126081B5
Copy CRC 126081B5
Accurately ripped (confidence 1) [93C5B302] (AR v2)
Copy OK

All tracks accurately ripped

No errors occurred

End of status report

---- CUETools DB Plugin V2.1.3

[CTDB TOCID: t01GUmrY47ZaNitXIPIZwo.O3cQ-] disk not present in database, Submit result: t01GUmrY47ZaNitXIPIZwo.O3cQ- has been uploaded

==== Log checksum A780410B6F7F20BF89CED56CDCF300CD0A677323C6D863270E932CEDBCC06CBD ====

foobar2000 1.2 / Dynamic Range Meter 1.1.1
log date: 2015-03-13 00:02:05

--
Analyzed: Terry Manning / Home Sweet Home
--

DR Peak RMS Duration Track
--
DR8 -0.21 dB -10.46 dB 10:09 01-Savoy Truffle
DR8 -0.21 dB -9.56 dB 3:24 02-Guess Things Happen That Way
DR7 -0.21 dB -9.51 dB 3:01 03-Trashy Dog
DR8 -0.21 dB -9.00 dB 2:29 04-Wild Wild Rocker
DR9 -0.21 dB -10.48 dB 4:40 05-Choo Choo Train
DR8 -0.21 dB -10.18 dB 4:16 06-I Ain't Got You
DR9 -0.21 dB -11.26 dB 4:01 07-Sour Mash
DR8 -0.26 dB -10.17 dB 5:02 08-I Wanna Be Your Man
DR7 0.00 dB -8.00 dB 2:29 09-Talk Talk
DR9 0.00 dB -10.09 dB 3:04 10-One After 909
DR8 -0.15 dB -9.90 dB 5:00 11-I Can't Stand the Rain (Live)
--

Number of tracks: 11
Official DR value: DR8

Samplerate: 44100 Hz
Channels: 2
Bits per sample: 16
Bitrate: 980 kbps
Codec: FLAC

http://i58.fastpic.ru/big/2015/0315/e4/abac432fd89f8940537a81c7ae3a63e4.jpg

http://i66.fastpic.ru/big/2015/0315/07/a126a8ca3adb4c65ec097ab0bd6a0f07.jpg



DOWNLOAD LINKS:
Buy Premium To Support Me & Get Resumable Support & Max Speed


Links are Interchangeable - No Password - Single Extraction

Terry Manning - Home Sweet Home (1970) Remastered 2006 Fast Download


Ad2

 
 
 
Dear visitor, you went to the site as an unregistered user. We encourage you to register or enter the site under your name.
 
   
 
 (Votes #: 0)