2013Zone For Latest Downloads

 
     
 
Legal Downloads » Music » Complex - Collection 1970-71 (2 Albums) [Reissue 1999]
Menu
Home Applications
Games Movies
Music TV Shows
Torrents Graphics

Sitemap

RSS
 
Advanced Search
Last News
Site Info
Top Contributors:
  1    supper88 32766
  2    admin 32671
  3    Whisky 10080
  4    Shark_ 8911
  5    creativelivenew 8706
  6    whathesupa 2799
  7    candymypost 840
  8    hvnteam 629
  9    vuong87 3


Articles:
  This Hour: 20
  Today: 20
  This Month: 78
  All Time: 515636


Torrents:
  Today: 0
  Yesterday: 0
  All Time: 156702


Membership:
  Registered Today :0
  This Hour:0
  This Month:0
  Total:14
  Banned:1

{online}
{inform_torrent}
Friend:
We Recomend
Trend
Trend
Ad1

Search In Site

Music : Complex - Collection 1970-71 (2 Albums) [Reissue 1999]
 
http://i63.fastpic.ru/big/2015/0315/87/91b8535806115d14e3021492ed0dd987.jpg

Complex - Collection 1970-71 (2 Albums) [Reissue 1999]
EAC Rip | FLAC: Image+Cue+Log | 506 Mb | MP3 CBR 320 kbps | 244 Mb | Scans
Genre: Psychedelic Rock, Garage Rock | Label: Wooden Hill | Cat.№: WHCD008/9

"The first & the second psychedelic albums are among the most sought-after arte facts of British Phychedelia. Only 99 copies of each album by this Blackpool-based band were pressed. Despite the fact the debut album was recorded in November 1970 it sounds like it's a straight out of the Summer of Love."

Complex | Wikipedia | Psychedelic-Rock'n'roll

*····························································*

http://i64.fastpic.ru/big/2015/0315/98/39f756777ee7ffb5dca0939935c4fc98.jpg

Complex (1970)
FLAC: Image+Cue+Log | 214 Mb | MP3 CBR 320 kbps | 135 Mb | Scans | Time: 56:24
Label: Wooden Hill | Cat.№: WHCD008

"This is a "MONSTER" album !!!
In spite of its humble origins and the warm, friendly nature of its contents, the self-titled album by British band COMPLEX shines as a main beacon in the ragged waters of the controversy. First ever CD issue of classic UK psych private pressing from 1970. This definitive issue features 15 tracks including 4 unreleased bonus tracks from the same period including a great version of the Deep Purple hit 'Hush'."


Track Listing

01. Funny Feeling (02:56)
02. Message From The Year 2000 (02:48)
03. Green-Eyed Lucy (03:53)
04. Josie (02:39)
05. Witch's Spell (03:42)
06. Norwegian Butterfly (02:56)
07. Self Declaration (06:07)
08. Images Blue (03:01)
09. Storm On Way (04:05)
10. Mademoiselle Jackie (04:01)
11. Live For The Minute (04:05)
Bonus tracks
12. Hush (Joe South cover) (04:33)
13. Images Blue (alternate version) (04:32)
14. Green-Eyed Lucy (alternate version) (03:55)
15. Norwegian Butterfly (alternate version) (03:04)

Produced by Complex

Exact Audio Copy V0.99 prebeta 5 from 4. May 2009

Отчёт EAC об извлечении, выполненном 22. сентября 2010, 17:18

Complex / Complex

Дисковод: Optiarc DVD RW AD-7203S Adapter: 4 ID: 0

Режим чтения : Достоверность
?спользование точного потока : Да
Отключение кэ?а аудио : Да
?спользование указателей C2 : Нет

Коррекция смещения при чтении : 48
Способность читать области Lead-in и Lead-out : Нет
Заполнение пропущенных сэмплов ти?иной : Да
Удаление блоков с ти?иной в начале и конце : Нет
При вычислениях CRC использовались нулевые сэмплы : Нет
?нтерфейс : Встроенный Win32-интерфейс для Win NT/2000

Выходной формат : Пользовательский кодировщик
Выбранный битрейт : 768 kBit/s
Качество : Высокий
Добавление ID3-тэга : Нет
Утилита сжатия : C:\Program Files\Exact Audio Copy\FLAC\FLAC.EXE
Дополнительные параметры : -6 -V -T "ARTIST=%a" -T "TITLE=%t" -T "ALBUM=%g" -T "DATE=%y" -T "TRACKNUMBER=%n" -T "GENRE=%m" -T "COMMENT=%e" %s -o %d

TOC извлечённого CD Трек | Старт | Длительность | Начальный сектор | Конечный сектор
-------
1 | 0:00.00 | 2:56.58 | 0 | 13257
2 | 2:56.58 | 2:48.06 | 13258 | 25863
3 | 5:44.64 | 3:53.19 | 25864 | 43357
4 | 9:38.08 | 2:39.13 | 43358 | 55295
5 | 12:17.21 | 3:42.51 | 55296 | 71996
6 | 15:59.72 | 2:55.72 | 71997 | 85193
7 | 18:55.69 | 6:07.69 | 85194 | 112787
8 | 25:03.63 | 3:01.03 | 112788 | 126365
9 | 28:04.66 | 4:05.15 | 126366 | 144755
10 | 32:10.06 | 4:01.40 | 144756 | 162870
11 | 36:11.46 | 4:05.36 | 162871 | 181281
12 | 40:17.07 | 4:33.63 | 181282 | 201819
13 | 44:50.70 | 4:32.64 | 201820 | 222283
14 | 49:23.59 | 3:55.55 | 222284 | 239963
15 | 53:19.39 | 3:04.21 | 239964 | 253784

Характеристики диапазона извлечения и сообщения об о?ибках

Выбранный диапазон ?мя файла E:\1\Complex - Complex.wav Пиковый уровень 94.3 %
Качество диапазона 100.0 %
CRC копии F0189C27
Копирование... OK

О?ибок не произо?ло


AccurateRip: сводка

Трек 1 нет в базе данных
Трек 2 нет в базе данных
Трек 3 нет в базе данных
Трек 4 нет в базе данных
Трек 5 нет в базе данных
Трек 6 нет в базе данных
Трек 7 нет в базе данных
Трек 8 нет в базе данных
Трек 9 нет в базе данных
Трек 10 нет в базе данных
Трек 11 нет в базе данных
Трек 12 нет в базе данных
Трек 13 нет в базе данных
Трек 14 нет в базе данных
Трек 15 нет в базе данных

Ни одного трека нет в базе AccurateRip

Конец отчёта

*····························································*

http://i68.fastpic.ru/big/2015/0315/85/6499ec5cc5b18338b2e4e77e90a50085.jpg

The Way We Feel (1971)
FLAC: Image+Cue+Log | 292 Mb | MP3 CBR 320 kbps | 110 Mb | Scans | Time: 46:44
Label: Wooden Hill | Cat.№: WHCD009

"Despite its rarity and value many collectors regard The Way We Feel, which was recorded at Deroy Sound Studios the following year, as an anti-climax. A few songs, particularly Moving Moor and We Don't Exist, are on a par with the debut album, but overall the quality of material is comparatively disappointing. Soon after the release of this album the band's main songwriter Steve Coe departed. Several years later he re-emerged in Monsoon. The remaining members recorded a five-track acetate for a third album, which remains unreleased, before disbanding.

First-ever CD issue of 1971 second album from legendary UK psych private pressing exponents, this release features two bonus tracks taken from an EMI audition test held shortly before the LP was recorded."


Track Listing

01. Every Time I Hear That Song (02:46)
02. Am I (04:09)
03. We Don't Exist (05:55)
04. Lemon Pie Fair (03:19)
05. The Way I Feel (03:22)
06. Moving Moor (04:48)
07. Jeananette (04:31)
08. Hey Gerl You've Got Style (03:01)
09. If You Are My Love (06:41)
Bonus tracks
10. Moving Moor (alternate version) (04:49)
11. The Way I Feel (alternate version) (03:17)

Produced by Complex

The Band

* Tony Shakespeare - lead vocals, drums
* Brian Lee - guitars, backing vocals
* Steve Coe - organ
* Lance Fogg - bass, backing vocals

Notes

Digitally remastered by Denis Blackham at Country Masters.
DOWNLOAD LINKS:
Buy Premium To Support Me & Get Resumable Support & Max Speed


Links are Interchangeable - No Password - Single Extraction



Ad2

 
 
 
Dear visitor, you went to the site as an unregistered user. We encourage you to register or enter the site under your name.
 
   
 
 (Votes #: 0)