2013Zone For Latest Downloads

 
     
 
Legal Downloads » Music » The Misunderstood - The Lost Acetates 1965-66 (2004)
Menu
Home Applications
Games Movies
Music TV Shows
Torrents Graphics

Sitemap

RSS
 
Advanced Search
Last News
Site Info
Top Contributors:
  1    supper88 32766
  2    admin 32683
  3    Whisky 10080
  4    Shark_ 8911
  5    creativelivenew 8706
  6    whathesupa 2799
  7    candymypost 840
  8    hvnteam 629
  9    vuong87 3


Articles:
  This Hour: 0
  Today: 0
  This Month: 52
  All Time: 515552


Torrents:
  Today: 0
  Yesterday: 0
  All Time: 156675


Membership:
  Registered Today :0
  This Hour:0
  This Month:0
  Total:14
  Banned:1

{online}
{inform_torrent}
Friend:
Download Nulled Scripts
Torrent Download
Trend
Trend
VPN_ad

Search In Site

Music : The Misunderstood - The Lost Acetates 1965-66 (2004)
 
http://i66.fastpic.ru/big/2015/0321/5b/4a27f0ca14c6a9c07b1d2fa2769c0f5b.jpg

The Misunderstood - The Lost Acetates 1965-66 (2004)
EAC | FLAC | Image (Cue&Log) ~ 131 Mb (incl 5%) | Mp3 (CBR320) ~ 105 Mb (incl 5%) | Scans included
Genre: Psychedelic Rock, Garage Rock | Label: Ugly Things Records | # UTCD-2201 | Time: 00:38:16

"Although the Misunderstood were among the best obscure psychedelic bands -- indeed, among the best obscure '60s rock bands of any kind -- they barely got to record anything before tragic circumstances broke them up. The discovery of this bunch of previously unknown mid-'60s acetates, then, was big news to psychedelic rock aficionados, though most of this actually comes from their garage R&B days rather than the psychedelic peak they attained with their late-1966 lineup. The first nine of these 14 tracks come from sessions spanning mid-1965 to early 1966, and show them as a ferocious, above-average moody raw R&B-based group, somewhat in the mold of a more guitar-oriented Animals."



Tracklist:

01. She Got Me (version 2) (02:14)
02. Don't Break Me Down (02:40)
03. Bury My Body (02:33)
04. Why (02:53)
05. Got Love If You Want It (03:32)
06. She Got Me (version 1) (02:53)
07. End of Time (03:15)
08. Thunder 'N Lightin' (03:22)
09. I Unseen (version 1) (02:26)
10. Who's Been Talkin' (02:58)
11. My Mind (02:26)
12. Find The Hidden Door (02:09)
13. Children of the Sun (02:49)
14. I Unseen (version 2) (01:59)


Exact Audio Copy V1.0 beta 3 from 29. August 2011

EAC extraction logfile from 21. July 2014, 11:10

The Misunderstood / The Lost Acetates 1965-66

Used drive : ASUS DRW-1814BLT Adapter: 3 ID: 0

Read mode : Secure
Utilize accurate stream : Yes
Defeat audio cache : Yes
Make use of C2 pointers : No

Read offset correction

: 6
Overread into Lead-In and Lead-Out : No
Fill up missing offset samples with silence : Yes
Delete leading and trailing silent blocks : No
Null samples used in CRC calculations : Yes
Used interface : Installed external ASPI interface

Used output format : User Defined Encoder
Selected bitrate : 896 kBit/s
Quality : High
Add ID3 tag : No
Command line compressor : K:\Programm\eac\Exact Audio Copy\Flac\flac.exe
Additional command line options : -V -8 -T "Date=%year%" -T "Genre=%genre%" %source%

TOC of the extracted CD Track | Start | Length | Start sector | End sector
-----------
1 | 0:00.00 | 2:14.59 | 0 | 10108
2 | 2:14.59 | 2:40.21 | 10109 | 22129
3 | 4:55.05 | 2:33.49 | 22130 | 33653
4 | 7:28.54 | 2:53.66 | 33654 | 46694
5 | 10:22.45 | 3:32.58 | 46695 | 62652
6 | 13:55.28 | 2:53.29 | 62653 | 75656
7 | 16:48.57 | 3:15.35 | 75657 | 90316
8 | 20:04.17 | 3:22.72 | 90317 | 105538
9 | 23:27.14 | 2:26.22 | 105539 | 116510
10 | 25:53.36 | 2:58.70 | 116511 | 129930
11 | 28:52.31 | 2:26.24 | 129931 | 140904
12 | 31:18.55 | 2:09.29 | 140905 | 150608
13 | 33:28.09 | 2:49.21 | 150609 | 163304
14 | 36:17.30 | 1:59.01 | 163305 | 172230

Range status and errors

Selected range Filename F:\EAC\The Misunderstood - The Lost Acetates 1965-66.wav Peak level 77.2 %
Extraction speed 2.8 X
Range quality 100.0 %
Test CRC 561A9D4A
Copy CRC 561A9D4A
Copy OK

No errors occurred


AccurateRip summary

Track 1 accurately ripped (confidence 1) 68A0789 (AR v1)
Track 2 accurately ripped (confidence 1) [23FC143E] (AR v2)
Track 3 accurately ripped (confidence 1) [F909E7C7] (AR v2)
Track 4 accurately ripped (confidence 1) [22EF44A0] (AR v2)
Track 5 accurately ripped (confidence 1) [65CDA794] (AR v2)
Track 6 accurately ripped (confidence 1) [F1EB40EF] (AR v2)
Track 7 accurately ripped (confidence 1) [3D0A1C09] (AR v2)
Track 8 accurately ripped (confidence 1) [A80902FE] (AR v2)
Track 9 accurately ripped (confidence 1) [7A54E4E9] (AR v2)
Track 10 accurately ripped (confidence 1) [EB385614] (AR v2)
Track 11 accurately ripped (confidence 1) [9EFF0C41] (AR v2)
Track 12 accurately ripped (confidence 1) [D820F721] (AR v2)
Track 13 accurately ripped (confidence 1) [83B12E29] (AR v2)
Track 14 accurately ripped (confidence 1) [A424988F] (AR v2)

All tracks accurately ripped

End of status report

---- CUETools DB Plugin V2.1.4

[CTDB TOCID: MkOlQqA7dW1uInKnl4tff5Wbayc-] found
Submit result: MkOlQqA7dW1uInKnl4tff5Wbayc- has been confirmed
Track | CTDB Status
1 | (1/1) Accurately ripped
2 | (1/1) Accurately ripped
3 | (1/1) Accurately ripped
4 | (1/1) Accurately ripped
5 | (1/1) Accurately ripped
6 | (1/1) Accurately ripped
7 | (1/1) Accurately ripped
8 | (1/1) Accurately ripped
9 | (1/1) Accurately ripped
10 | (1/1) Accurately ripped
11 | (1/1) Accurately ripped
12 | (1/1) Accurately ripped
13 | (1/1) Accurately ripped
14 | (1/1) Accurately ripped

==== Log checksum 9E75028D06DCCF71136CD2DC8B77D4144AEACCD6C9DEA46043F8F98F7DDF6865 ====

foobar2000 1.2 / Dynamic Range Meter 1.1.1
log date: 2015-03-19 16:54:47

--
Analyzed: The Misunderstood / The Lost Acetates 1965-66
--

DR Peak RMS Duration Track
--
DR9 -2.69 dB -13.15 dB 2:15 01-She Got Me (version 2)
DR8 -2.83 dB -12.18 dB 2:40 02-Don't Break Me Down
DR9 -2.93 dB -12.92 dB 2:34 03-Bury My Body
DR8 -3.09 dB -12.82 dB 2:54 04-Why
DR8 -2.94 dB -12.44 dB 3:33 05-Got Love If You Want It
DR12 -4.14 dB -18.34 dB 2:53 06-She Got Me (version 1)
DR11 -3.32 dB -16.43 dB 3:15 07-End of Time
DR7 -2.41 dB -10.79 dB 3:23 08-Thunder 'N Lightin'
DR7 -2.75 dB -10.76 dB 2:26 09-I Unseen (version 1)
DR10 -2.92 dB -15.45 dB 2:59 10-Who's Been Talkin'
DR9 -2.26 dB -13.05 dB 2:26 11-My Mind
DR8 -2.27 dB -12.63 dB 2:09 12-Find The Hidden Door
DR8 -2.25 dB -11.44 dB 2:49 13-Children of the Sun
DR8 -2.24 dB -11.10 dB 1:59 14-I Unseen (version 2)
--

Number of tracks: 14
Official DR value: DR9

Samplerate: 44100 Hz
Channels: 2
Bits per sample: 16
Bitrate: 413 kbps
Codec: FLAC

http://i60.fastpic.ru/big/2015/0321/e8/f7ce0d3ea11fdfe24fcfc93548fd51e8.jpg

http://i65.fastpic.ru/big/2015/0321/ef/6856df70ff0165cac9d507051d82b3ef.jpg


DOWNLOAD LINKS:
Buy Premium To Support Me & Get Resumable Support & Max Speed


Links are Interchangeable - No Password - Single Extraction

The Misunderstood - The Lost Acetates 1965-66 (2004) Fast Download


Cheap VPN

 
 
 
Dear visitor, you went to the site as an unregistered user. We encourage you to register or enter the site under your name.
 
   
 
 (Votes #: 0)