2013Zone For Latest Downloads

 
     
 
Legal Downloads » TV Shows » CNN - The 500 Million Dollar Question: Who Pulled off the Greatest Art Heist in Boston's History? (2015)
Menu
Home Applications
Games Movies
Music TV Shows
Torrents Graphics

Sitemap

RSS
 
Advanced Search
Last News
Site Info
Top Contributors:
  1    supper88 32766
  2    admin 32683
  3    Whisky 10080
  4    Shark_ 8911
  5    creativelivenew 8706
  6    whathesupa 2799
  7    candymypost 840
  8    hvnteam 629
  9    vuong87 3


Articles:
  This Hour: 0
  Today: 0
  This Month: 52
  All Time: 515552


Torrents:
  Today: 0
  Yesterday: 0
  All Time: 156675


Membership:
  Registered Today :0
  This Hour:0
  This Month:0
  Total:14
  Banned:1

{online}
{inform_torrent}
Friend:
Download Nulled Scripts
Torrent Download
Trend
Trend
VPN_ad

Search In Site

TV Shows : CNN - The 500 Million Dollar Question: Who Pulled off the Greatest Art Heist in Boston's History? (2015)
 

http://i65.fastpic.ru/big/2015/0321/77/19e92066cc75d5c030aa3d6aa2fe5377.jpg
CNN - The 500 Million Dollar Question: Who Pulled off the Greatest Art Heist in Boston's History? (2015)
HDTV | 1280x720 | .MKV/AVC @ 3038 Kbps | 42mn 29s | Audio: English AC3 448 kbps, 6 channels | Subs: None | 1.06 GiB
Genre: Documentary

"Investigators continue their quest for answers at Boston's Isabella Gardner Museum, the site of history's largest art heist."

General
Unique ID : 190866733880588588997242666137856075285 (0x8F979887732CFD71A37B8C4FDDE16615)
Complete name : cnn.special.report.the.500m.question.wpotgahibh.mkv
Format : Matroska
Format version : Version 4 / Version 2
File size : 1.06 GiB
Duration : 42mn 29s
Overall bit rate : 3 556 Kbps

Video
ID : 1
Format : AVC
Format/Info : Advanced Video Codec
Format profile : [email protected]
Format settings, CABAC : Yes
Format settings, ReFrames : 5 frames
Codec ID : V_MPEG4/ISO/AVC
Duration : 42mn 29s
Bit rate : 3 038 Kbps
Width : 1 280 pixels
Height : 720 pixels
Display aspect ratio : 16:9
Frame rate : 29.970 fps
Color space : YUV
Chroma subsampling

: 4:2:0
Bit depth : 8 bits
Scan type : Progressive
Bits/(Pixel*Frame)

: 0.110
Stream size : 923 MiB (85%)
Writing library : x264 core 146 r2538 121396c
Encoding settings: cabac=1 / ref=5 / deblock=1:0:0 / analyse=0x3:0x113 / me=umh / subme=8 / psy=1 / psy_rd=1.00:0.00 / mixed_ref=1 / me_range=16 / chroma_me=1 / trellis=1 / 8x8dct=1 / cqm=0 / deadzone=21,11 / fast_pskip=1 / chroma_qp_offset=-2 / threads=12 / lookahead_threads=2 / sliced_threads=0 / nr=0 / decimate=1 / interlaced=0 / bluray_compat=0 / constrained_intra=0 / bframes=3 / b_pyramid=2 / b_adapt=2 / b_bias=0 / direct=3 / weightb=1 / open_gop=0 / weightp=2 / keyint=250 / keyint_min=25 / scenecut=40 / intra_refresh=0 / rc_lookahead=50 / rc=crf / mbtree=1 / crf=20.0 / qcomp=0.60 / qpmin=0 / qpmax=69 / qpstep=4 / ip_ratio=1.40 / aq=1:1.00
Language : English
Default : Yes
Forced : No

Audio
ID : 2
Format : AC-3
Format/Info : Audio Coding 3
Mode extension : CM (complete main)
Format settings, Endianness : Big
Codec ID : A_AC3
Duration : 42mn 29s
Bit rate mode : Constant
Bit rate : 448 Kbps
Channel(s) : 6 channels
Channel positions: Front: L C R, Side: L R, LFE
Sampling rate : 48.0 KHz
Bit depth : 16 bits
Compression mode : Lossy
Stream size : 136 MiB (13%)
Language : English
Default : Yes
Forced : No

Text
ID : 3
Format : UTF-8
Codec ID : S_TEXT/UTF8
Codec ID/Info : UTF-8 Plain Text
Language : English
Default : No
Forced : No

Screenshots:

http://i66.fastpic.ru/big/2015/0321/24/959462102488202a64c72917d7658f24.jpg

http://i60.fastpic.ru/big/2015/0321/08/f7ee2c0ecdd657387d0abbf1aa801e08.jpg

http://i60.fastpic.ru/big/2015/0321/7b/3816cef68faed04b4a12010e0c89387b.jpg


DOWNLOAD LINKS:
Buy Premium To Support Me & Get Resumable Support & Max Speed


Links are Interchangeable - No Password - Single Extraction

CNN - The 500 Million Dollar Question: Who Pulled off the Greatest Art Heist in Boston's History? (2015) Fast Download


Cheap VPN

 
 
 
Dear visitor, you went to the site as an unregistered user. We encourage you to register or enter the site under your name.
 
   
 
 (Votes #: 0)