2013Zone For Latest Downloads

 
     
 
Legal Downloads » Music » Nicholas Gunn - 5 Albums (1994-2004)
Menu
Home Applications
Games Movies
Music TV Shows
Torrents Graphics

Sitemap

RSS
 
Advanced Search
Last News
Site Info
Top Contributors:
  1    supper88 32766
  2    admin 32671
  3    Whisky 10080
  4    Shark_ 8911
  5    creativelivenew 8706
  6    whathesupa 2799
  7    candymypost 840
  8    hvnteam 629
  9    vuong87 3


Articles:
  This Hour: 0
  Today: 0
  This Month: 40
  All Time: 515636


Torrents:
  Today: 0
  Yesterday: 0
  All Time: 156702


Membership:
  Registered Today :0
  This Hour:0
  This Month:0
  Total:14
  Banned:1

{online}
{inform_torrent}
Friend:
We Recomend
Trend
Trend

Search In Site

Music : Nicholas Gunn - 5 Albums (1994-2004)
 
http://i57.fastpic.ru/big/2015/0408/61/6ff52aab1c4cd57fae67b36bd6f50561.jpg

Nicholas Gunn - 5 Albums (1994-2004)
EAC Rip | FLAC (tracks+.cue+log) - 1,5 GB | MP3 CBR 320 kbps (LAME 3.93) - 544 MB | Covers - 817 MB
Genre: New Age | RAR 3% Rec. | Label: Real Music, Gemini Sun Records

"Classically trained, and with a reputation as one of the world's best selling flutists, Nicholas Gunn is in the upper echelon of contemporary instrumentalists. Having released over thirteen solo projects and selling over two million copies he is a double platinum artist. His music can best be described as a fusion of Native American and ambient/world music. He masterfully employs the guitar, piano, and percussion and infuses his beloved flute and other wind instruments extensively in most of his songs. Beautifully rhythmic, it deeply touches the heart, mind, and soul. Longing, nostalgia, and sentimentality are triggered by Gunn's passion and respect for Native Americans and a purer and simpler way of life."

http://i68.fastpic.ru/big/2015/0408/5b/45dd172e495aab851ab28235ebb6ea5b.jpg

Nicholas Gunn - The Sacred Fire (1994)
EAC Rip | FLAC (tracks+.cue+log) - 428 MB | MP3 CBR 320 kbps (LAME 3.93) - 147 MB | Covers - 79 MB
Genre: New Age | RAR 3% Rec. | Label: Real Music (RM3664)

Tracklist:
01. Earth Story
02. Painted Desert
03. Tale of Two Lovers
04. Equinox
05. Odessa
06. I Still Remeber
07. The Sacred Fire
08. A Place in My Heart
09. Baile Para La Luna
10. She Walks in Beauty
11. Ruby Forest
12. NMidnight Hour
13. Waking Hour
14. From Heaven to Earth
15. Ritual

Total time: 01:02:40

Exact Audio Copy V0.99 prebeta 5 from 4. May 2009

EAC extraction logfile from 29. October 2010, 11:20

Nicholas Gunn / The Sacred Fire

Used drive : PLEXTOR DVDR PX-760A Adapter: 3 ID: 0

Read mode : Secure
Utilize accurate stream : Yes
Defeat audio cache : Yes
Make use of C2 pointers : No

Read offset correction

: 30
Overread into Lead-In and Lead-Out : No
Fill up missing offset samples with silence : Yes
Delete leading and trailing silent blocks : No
Null samples used in CRC calculations : Yes
Used interface
: Installed external ASPI interface
Gap handling
: Appended to previous track

Used output format : User Defined Encoder
Selected bitrate : 128 kBit/s
Quality : Low
Add ID3 tag : No
Command line compressor : C:\Program Files\Exact Audio Copy\Flac\flac.exe
Additional command line options : -8 -V -T "ARTIST=%a" -T "TITLE=%t" -T "ALBUM=%g" -T "DATE=%y" -T "TRACKNUMBER=%n" -T "GENRE=%m" -T "COMMENT=ripped by DrStandBy" %s

TOC of the extracted CD Track | Start | Length | Start sector | End sector
-----------1 | 0:00.00 | 3:49.08 | 0 | 17182 2 | 3:49.08 | 3:43.50 | 17183 | 33957 3 | 7:32.58 | 4:44.52 | 33958 | 55309 4 | 12:17.35 | 4:22.30 | 55310 | 74989 5 | 16:39.65 | 3:36.10 | 74990 | 91199 6 | 20:16.00 | 4:57.10 | 91200 | 113484 7 | 25:13.10 | 4:08.05 | 113485 | 132089 8 | 29:21.15 | 3:40.20 | 132090 | 148609 9 | 33:01.35 | 4:50.40 | 148610 | 170399
10 | 37:52.00 | 4:17.05 | 170400 | 189679
11 | 42:09.05 | 5:03.08 | 189680 | 212412
12 | 47:12.13 | 2:53.62 | 212413 | 225449
13 | 50:06.00 | 4:30.68 | 225450 | 245767
14 | 54:36.68 | 4:56.45 | 245768 | 268012
15 | 59:33.38 | 3:06.45 | 268013 | 282007

Track 1 Filename E:\Nicholas Gunn\1994 - The Sacred Fire (Real Music #RM3664)\01. Nicholas Gunn - Earth Story.wav Pre-gap length 0:00:02.00 Peak level 100.0 %
Track quality 99.9 %
Test CRC 38BC560F
Copy CRC 38BC560F
Accurately ripped (confidence 14) [605898B2]
Copy OK

Track 2 Filename E:\Nicholas Gunn\1994 - The Sacred Fire (Real Music #RM3664)\02. Nicholas Gunn - Painted Desert.wav Peak level 95.5 %
Track quality 100.0 %
Test CRC 2B1B73E1
Copy CRC 2B1B73E1
Accurately ripped (confidence 14) [147463A4]
Copy OK

Track 3 Filename E:\Nicholas Gunn\1994 - The Sacred Fire (Real Music #RM3664)\03. Nicholas Gunn - Tale of Two Lovers.wav Peak level 89.1 %
Track quality 100.0 %
Test CRC 7CF2FB06
Copy CRC 7CF2FB06
Accurately ripped (confidence 14) [6B4D222B]
Copy OK

Track 4 Filename E:\Nicholas Gunn\1994 - The Sacred Fire (Real Music #RM3664)\04. Nicholas Gunn - Equinox.wav Peak level 100.0 %
Track quality 100.0 %
Test CRC 838D26FB
Copy CRC 838D26FB
Accurately ripped (confidence 12) [66F57F83]
Copy OK

Track 5 Filename E:\Nicholas Gunn\1994 - The Sacred Fire (Real Music #RM3664)\05. Nicholas Gunn - Odessa.wav Pre-gap length 0:00:03.24 Peak level 94.4 %
Track quality 100.0 %
Test CRC 861395B7
Copy CRC 861395B7
Accurately ripped (confidence 14) [C5F5327C]
Copy OK

Track 6 Filename E:\Nicholas Gunn\1994 - The Sacred Fire (Real Music #RM3664)\06. Nicholas Gunn - I Still Remeber.wav Pre-gap length 0:00:02.96 Peak level 82.5 %
Track quality 100.0 %
Test CRC 9E492FC0
Copy CRC 9E492FC0
Accurately ripped (confidence 14) [9D49F614]
Copy OK

Track 7 Filename E:\Nicholas Gunn\1994 - The Sacred Fire (Real Music #RM3664)\07. Nicholas Gunn - The Sacred Fire.wav Peak level 95.7 %
Track quality 99.9 %
Test CRC 9F938572
Copy CRC 9F938572
Accurately ripped (confidence 14) [9B8CEF8B]
Copy OK

Track 8 Filename E:\Nicholas Gunn\1994 - The Sacred Fire (Real Music #RM3664)\08. Nicholas Gunn - A Place in My Heart.wav Peak level 96.7 %
Track quality 100.0 %
Test CRC BAC06EC7
Copy CRC BAC06EC7
Accurately ripped (confidence 14) [E0CF8CDF]
Copy OK

Track 9 Filename E:\Nicholas Gunn\1994 - The Sacred Fire (Real Music #RM3664)\09. Nicholas Gunn - Baile Para La Luna.wav Pre-gap length 0:00:01.60 Peak level 98.8 %
Track quality 99.9 %
Test CRC C0B7BE3E
Copy CRC C0B7BE3E
Accurately ripped (confidence 14) [D7E36BC9]
Copy OK

Track 10 Filename E:\Nicholas Gunn\1994 - The Sacred Fire (Real Music #RM3664)\10. Nicholas Gunn - She Walks in Beauty.wav Peak level 94.4 %
Track quality 100.0 %
Test CRC C6F65DBD
Copy CRC C6F65DBD
Accurately ripped (confidence 14) [EB13BD8C]
Copy OK

Track 11 Filename E:\Nicholas Gunn\1994 - The Sacred Fire (Real Music #RM3664)\11. Nicholas Gunn - Ruby Forest.wav Pre-gap length 0:00:02.29 Peak level 100.0 %
Track quality 100.0 %
Test CRC D8C54A3C
Copy CRC D8C54A3C
Accurately ripped (confidence 14) [5031AEBE]
Copy OK

Track 12 Filename E:\Nicholas Gunn\1994 - The Sacred Fire (Real Music #RM3664)\12. Nicholas Gunn - Midnight Hour.wav Peak level 72.5 %
Track quality 100.0 %
Test CRC 0D99886D
Copy CRC 0D99886D
Accurately ripped (confidence 14) [F54C1573]
Copy OK

Track 13 Filename E:\Nicholas Gunn\1994 - The Sacred Fire (Real Music #RM3664)\13. Nicholas Gunn - Waking Hour.wav Peak level 100.0 %
Track quality 100.0 %
Test CRC E529DC38
Copy CRC E529DC38
Accurately ripped (confidence 14) [C7A58AEA]
Copy OK

Track 14 Filename E:\Nicholas Gunn\1994 - The Sacred Fire (Real Music #RM3664)\14. Nicholas Gunn - From Heaven to Earth.wav Pre-gap length 0:00:01.70 Peak level 100.0 %
Track quality 100.0 %
Test CRC A8EDBB3A
Copy CRC A8EDBB3A
Accurately ripped (confidence 14) [EE7F1100]
Copy OK

Track 15 Filename E:\Nicholas Gunn\1994 - The Sacred Fire (Real Music #RM3664)\15. Nicholas Gunn - Ritual.wav Pre-gap length 0:00:04.86 Peak level 100.0 %
Track quality 100.0 %
Test CRC A121CA86
Copy CRC A121CA86
Accurately ripped (confidence 14) [4F36CB07]
Copy OK

All tracks accurately ripped

No errors occurred

End of status report

[CUETools log; Date: 05.04.2015 23:07:56; Version: 2.1.4]
[CTDB TOCID: R.L1YfshprUXdQ.qILPji4ROXSQ-] found.
Track | CTDB Status
1 | (24/24) Accurately ripped
2 | (24/24) Accurately ripped
3 | (24/24) Accurately ripped
4 | (15/24) Accurately ripped, or (6/24) differs in 215 samples @04:17:73-04:18:00
5 | (24/24) Accurately ripped
6 | (24/24) Accurately ripped
7 | (24/24) Accurately ripped
8 | (24/24) Accurately ripped
9 | (24/24) Accurately ripped
10 | (24/24) Accurately ripped
11 | (24/24) Accurately ripped
12 | (24/24) Accurately ripped
13 | (24/24) Accurately ripped
14 | (24/24) Accurately ripped
15 | (24/24) Accurately ripped
[AccurateRip ID: 00227e4e-018853ed-c60eb00f] found.
Track [ CRC | V2 ] Status
01 [605898b2|bed4941a] (21+11/41) Accurately ripped
02 [147463a4|71e7b358] (21+10/40) Accurately ripped
03 [6b4d222b|3c285ecb] (21+11/41) Accurately ripped
04 [66f57f83|d499e983] (18+09/36) Accurately ripped
05 [c5f5327c|b67efb1e] (21+11/41) Accurately ripped
06 [9d49f614|eecfe7e3] (21+11/41) Accurately ripped
07 [9b8cef8b|ea0ed2e0] (21+11/43) Accurately ripped
08 [e0cf8cdf|05932332] (21+11/43) Accurately ripped
09 [d7e36bc9|734f75dc] (21+11/43) Accurately ripped
10 [eb13bd8c|d9078e85] (21+11/43) Accurately ripped
11 [5031aebe|1607194b] (21+11/43) Accurately ripped
12 [f54c1573|1c4d59eb] (21+11/43) Accurately ripped
13 [c7a58aea|f1a654e7] (21+11/43) Accurately ripped
14 [ee7f1100|d83ea154] (20+11/42) Accurately ripped
15 [4f36cb07|58a0db4d] (20+11/42) Accurately ripped
Offsetted by 459:
01 [6386e6e1] (02/41) Accurately ripped
02 [59e9f238] (02/40) Accurately ripped
03 [7b859b1b] (02/41) Accurately ripped
04 [670bf6a3] (02/36) Accurately ripped
05 [c40a68eb] (02/41) Accurately ripped
06 [48a35100] (02/41) Accurately ripped
07 [7ea1e8be] (02/43) Accurately ripped
08 [e4093bb1] (02/43) Accurately ripped
09 [cc416809] (02/43) Accurately ripped
10 [1b327872] (02/43) Accurately ripped
11 [30993910] (02/43) Accurately ripped
12 [6b31b084] (02/43) Accurately ripped
13 [44a32bbd] (02/43) Accurately ripped
14 8499c77 (02/42) Accurately ripped
15 [1ce5ebc6] (02/42) Accurately ripped
Offsetted by -678:
01 [feb95688] (00/41) No match (V2 was not tested)
02 [1c9e51ab] (00/40) No match (V2 was not tested)
03 [875f3cff] (00/41) No match (V2 was not tested)
04 [1f61bde0] (00/36) No match (V2 was not tested)
05 [e8949bce] (00/41) No match (V2 was not tested)
06 0866a53 (00/41) No match (V2 was not tested)
07 [8ecc4255] (00/43) No match (V2 was not tested)
08 [f6ab76d0] (00/43) No match (V2 was not tested)
09 [a97d6749] (00/43) No match (V2 was not tested)
10 [01b27aa0] (00/43) No match (V2 was not tested)
11 [efb18975] (00/43) No match (V2 was not tested)
12 [82325dbe] (00/43) No match (V2 was not tested)
13 [3a6cd7e8] (00/43) No match (V2 was not tested)
14 [7ace06c2] (00/42) No match (V2 was not tested)
15 [7ec400b9] (00/42) No match (V2 was not tested)
Offsetted by -447:
01 [883d42f6] (00/41) No match (V2 was not tested)
02 [7eaaba2a] (00/40) No match (V2 was not tested)
03 [89eb48d7] (00/41) No match (V2 was not tested)
04 [3838db32] (00/36) No match (V2 was not tested)
05 [a303ad29] (00/41) No match (V2 was not tested)
06 [f5d6d866] (00/41) No match (V2 was not tested)
07 [6f07feb7] (00/43) No match (V2 was not tested)
08 [6a789eac] (00/43) No match (V2 was not tested)
09 [2cd68889] (00/43) No match (V2 was not tested)
10 [274cd1fe] (00/43) No match (V2 was not tested)
11 [d2810ff4] (00/43) No match (V2 was not tested)
12 [f7c08121] (00/43) No match (V2 was not tested)
13 [44799a8c] (00/43) No match (V2 was not tested)
14 [8cb31fc5] (00/42) No match (V2 was not tested)
15 [1879d6a4] (00/42) No match (V2 was not tested)
Offsetted by -132:
01 [aa7f7f3a] (02/41) Accurately ripped
02 [4346407d] (02/40) Accurately ripped
03 [8aff15c6] (02/41) Accurately ripped
04 [c363276f] (00/36) No match (V2 was not tested)
05 [5b6c9648] (02/41) Accurately ripped
06 [cef37d91] (02/41) Accurately ripped
07 [0e89c45f] (02/43) Accurately ripped
08 [4eb3826e] (02/43) Accurately ripped
09 16758c9 (02/43) Accurately ripped
10 [434dd4c4] (02/43) Accurately ripped
11 [e0daba3f] (02/43) Accurately ripped
12 [a1719a9e] (02/43) Accurately ripped
13 b82a232 (02/43) Accurately ripped
14 [768e706c] (02/42) Accurately ripped
15 [d2cee313] (02/42) Accurately ripped
Offsetted by 224:
01 [a9032547] (00/41) No match (V2 was not tested)
02 [656413af] (00/40) No match (V2 was not tested)
03 [4c75c5f6] (00/41) No match (V2 was not tested)
04 [2d632d70] (00/36) No match (V2 was not tested)
05 [c08f71dc] (00/41) No match (V2 was not tested)
06 [56ad342e] (00/41) No match (V2 was not tested)
07 [d4f6e8ba] (02/43) Accurately ripped
08 [cd1f1416] (02/43) Accurately ripped
09 [db2293c9] (02/43) Accurately ripped
10 [26d0314c] (02/43) Accurately ripped
11 [4f292d89] (02/43) Accurately ripped
12 [7bcb7aec] (02/43) Accurately ripped
13 [8cbef462] (02/43) Accurately ripped
14 [d90fa560] (02/42) Accurately ripped
15 [50df5c67] (02/42) Accurately ripped

Track Peak [ CRC32 ] [W/O NULL] [ LOG ]
-- 100,0 [EA5A1B3C] [97E73556]
01 100,0 [38BC560F] [343CDDF1] CRC32
02 95,5 [2B1B73E1] [207D618C] CRC32
03 89,1 [7CF2FB06] [6DBF144B] CRC32
04 100,0 [838D26FB] [731EEDB3] CRC32
05 94,4 [861395B7] [CD9C6160] CRC32
06 82,5 [9E492FC0] [03E26D57] CRC32
07 95,7 [9F938572] [F53BF9ED] CRC32
08 96,7 AC06EC7 [6F44D8EC] CRC32
09 98,8 [C0B7BE3E] [1ACD0E9C] CRC32
10 94,4 [C6F65DBD] [A599E851] CRC32
11 100,0 [D8C54A3C] [2FE8664A] CRC32
12 72,5 [0D99886D] [DF67C92F] CRC32
13 100,0 [E529DC38] [683AB6B1] CRC32
14 100,0 [A8EDBB3A] [D03F9EE1] CRC32
15 100,0 [A121CA86] [A8480E90] CRC32

http://i57.fastpic.ru/big/2015/0408/22/0b5fd2939ca0b4b92665d3a4f60c6f22.jpg

Nicholas Gunn - Passion In My Heart (1998)
EAC Rip | FLAC (tracks+.cue+log) - 289 MB | MP3 CBR 320 kbps (LAME 3.93) - 110 MB | Covers - 191 MB
Genre: New Age | RAR 3% Rec. | Label: Real Music (RM3690)

Tracklist:
01. Indigo Skies
02. El Gavilan
03. Pale Moon Rising
04. Indian Summer
05. The Wishing Night
06. Guardian of the Flame
07. Desert Harvest
08. Passion in My Heart
09. Surrender
10. Eyes of the Wind

Total time: 46:44

Exact Audio Copy V0.99 prebeta 5 from 4. May 2009

EAC extraction logfile from 29. October 2010, 13:32

Nicholas Gunn / Passion In My Heart

Used drive : PLEXTOR DVDR PX-760A Adapter: 3 ID: 0

Read mode : Secure
Utilize accurate stream : Yes
Defeat audio cache : Yes
Make use of C2 pointers : No

Read offset correction

: 30
Overread into Lead-In and Lead-Out : No
Fill up missing offset samples with silence : Yes
Delete leading and trailing silent blocks : No
Null samples used in CRC calculations : Yes
Used interface
: Installed external ASPI interface
Gap handling
: Appended to previous track

Used output format : User Defined Encoder
Selected bitrate : 128 kBit/s
Quality : Low
Add ID3 tag : No
Command line compressor : C:\Program Files\Exact Audio Copy\Flac\flac.exe
Additional command line options : -8 -V -T "ARTIST=%a" -T "TITLE=%t" -T "ALBUM=%g" -T "DATE=%y" -T "TRACKNUMBER=%n" -T "GENRE=%m" -T "COMMENT=ripped by DrStandBy" %s

TOC of the extracted CD Track | Start | Length | Start sector | End sector
-----------1 | 0:00.00 | 4:21.67 | 0 | 19641 2 | 4:21.67 | 4:42.23 | 19642 | 40814 3 | 9:04.15 | 4:22.60 | 40815 | 60524 4 | 13:27.00 | 5:44.25 | 60525 | 86349 5 | 19:11.25 | 4:29.47 | 86350 | 106571 6 | 23:40.72 | 3:47.05 | 106572 | 123601 7 | 27:28.02 | 4:02.23 | 123602 | 141774 8 | 31:30.25 | 6:04.70 | 141775 | 169144 9 | 37:35.20 | 4:49.55 | 169145 | 190874
10 | 42:25.00 | 4:19.12 | 190875 | 210311

Track 1 Filename E:\Nicholas Gunn\1998 - Passion In My Heart (Real Music #RM3690)\01. Nicholas Gunn - Indigo Skies.wav Pre-gap length 0:00:02.00 Peak level 100.0 %
Track quality 100.0 %
Test CRC 586E11B6
Copy CRC 586E11B6
Accurately ripped (confidence 7) [44A75052]
Copy OK

Track 2 Filename E:\Nicholas Gunn\1998 - Passion In My Heart (Real Music #RM3690)\02. Nicholas Gunn - El Gavilan.wav Peak level 99.1 %
Track quality 100.0 %
Test CRC 40B81E14
Copy CRC 40B81E14
Accurately ripped (confidence 7) [D71EC2D4]
Copy OK

Track 3 Filename E:\Nicholas Gunn\1998 - Passion In My Heart (Real Music #RM3690)\03. Nicholas Gunn - Pale Moon Rising.wav Peak level 100.0 %
Track quality 100.0 %
Test CRC C0C8C4EB
Copy CRC C0C8C4EB
Accurately ripped (confidence 7) [43A0C540]
Copy OK

Track 4 Filename E:\Nicholas Gunn\1998 - Passion In My Heart (Real Music #RM3690)\04. Nicholas Gunn - Indian Summer.wav Peak level 90.6 %
Track quality 99.9 %
Test CRC 09152907
Copy CRC 09152907
Accurately ripped (confidence 7) [491A2010]
Copy OK

Track 5 Filename E:\Nicholas Gunn\1998 - Passion In My Heart (Real Music #RM3690)\05. Nicholas Gunn - The Wishing Night.wav Peak level 89.5 %
Track quality 99.9 %
Test CRC E716E5FA
Copy CRC E716E5FA
Accurately ripped (confidence 7) [9A117DC3]
Copy OK

Track 6 Filename E:\Nicholas Gunn\1998 - Passion In My Heart (Real Music #RM3690)\06. Nicholas Gunn - Guardian of the Flame.wav Peak level 100.0 %
Track quality 100.0 %
Test CRC A678D04B
Copy CRC A678D04B
Accurately ripped (confidence 7) [35AF7FC3]
Copy OK

Track 7 Filename E:\Nicholas Gunn\1998 - Passion In My Heart (Real Music #RM3690)\07. Nicholas Gunn - Desert Harvest.wav Peak level 99.4 %
Track quality 100.0 %
Test CRC A0BB71BA
Copy CRC A0BB71BA
Accurately ripped (confidence 7) [A3653CA1]
Copy OK

Track 8 Filename E:\Nicholas Gunn\1998 - Passion In My Heart (Real Music #RM3690)\08. Nicholas Gunn - Passion in My Heart.wav Peak level 98.1 %
Track quality 99.9 %
Test CRC 20ECC7F6
Copy CRC 20ECC7F6
Accurately ripped (confidence 7) [D9CE8EDB]
Copy OK

Track 9 Filename E:\Nicholas Gunn\1998 - Passion In My Heart (Real Music #RM3690)\09. Nicholas Gunn - Surrender.wav Peak level 89.5 %
Track quality 100.0 %
Test CRC 5CE4EA25
Copy CRC 5CE4EA25
Accurately ripped (confidence 7) [5FC82ED1]
Copy OK

Track 10 Filename E:\Nicholas Gunn\1998 - Passion In My Heart (Real Music #RM3690)\10. Nicholas Gunn - Eyes of the Wind.wav Peak level 97.8 %
Track quality 100.0 %
Test CRC 22AC0B76
Copy CRC 22AC0B76
Accurately ripped (confidence 7) [45A2A0E8]
Copy OK

All tracks accurately ripped

No errors occurred

End of status report

[CUETools log; Date: 05.04.2015 23:08:16; Version: 2.1.4]
[CTDB TOCID: torAiWTL6tyBBHJNdURMj52xw54-] found.
Track | CTDB Status
1 | (6/6) Accurately ripped
2 | (6/6) Accurately ripped
3 | (6/6) Accurately ripped
4 | (6/6) Accurately ripped
5 | (6/6) Accurately ripped
6 | (6/6) Accurately ripped
7 | (6/6) Accurately ripped
8 | (6/6) Accurately ripped
9 | (6/6) Accurately ripped
10 | (6/6) Accurately ripped
[AccurateRip ID: 00118aad-008cab61-820af40a] found.
Track [ CRC | V2 ] Status
01 [44a75052|f87bd6af] (09+04/13) Accurately ripped
02 [d71ec2d4|260568fb] (09+04/13) Accurately ripped
03 [43a0c540|1debe69a] (09+04/13) Accurately ripped
04 [491a2010|406c87b4] (09+04/13) Accurately ripped
05 [9a117dc3|5517f8ed] (09+04/13) Accurately ripped
06 [35af7fc3|58636471] (09+04/13) Accurately ripped
07 [a3653ca1|bda3a207] (09+04/13) Accurately ripped
08 [d9ce8edb|8b135331] (09+04/13) Accurately ripped
09 [5fc82ed1|c4fb0329] (09+04/13) Accurately ripped
10 [45a2a0e8|e2de5b54] (09+04/13) Accurately ripped
Offsetted by -681:
01 [36decc46] (00/13) No match (V2 was not tested)
02 [180c598a] (00/13) No match (V2 was not tested)
03 [d51532d6] (00/13) No match (V2 was not tested)
04 [450c0705] (00/13) No match (V2 was not tested)
05 [a995a728] (00/13) No match (V2 was not tested)
06 [20e9d3cc] (00/13) No match (V2 was not tested)
07 [a5016e29] (00/13) No match (V2 was not tested)
08 [25f770e8] (00/13) No match (V2 was not tested)
09 [0ba7f5d9] (00/13) No match (V2 was not tested)
10 [373a1b0d] (00/13) No match (V2 was not tested)

Track Peak [ CRC32 ] [W/O NULL] [ LOG ]
-- 100,0 [649E19FE] [DDDD7565]
01 100,0 [586E11B6] 671CDD2 CRC32
02 99,1 [40B81E14] [4F433575] CRC32
03 100,0 [C0C8C4EB] [496C11C1] CRC32
04 90,6 [09152907] [C19A8860] CRC32
05 89,5 [E716E5FA] [C97FFBAD] CRC32
06 100,0 [A678D04B] [50F1DA37] CRC32
07 99,4 [A0BB71BA] [92E8FFE4] CRC32
08 98,1 [20ECC7F6] [7CDE2E8C] CRC32
09 89,5 [5CE4EA25] [1E05A664] CRC32
10 97,8 [22AC0B76] [4752A813] CRC32

http://i68.fastpic.ru/big/2015/0408/8d/4d612407c0b3cff6128ea31052f1568d.jpg

Nicholas Gunn - A Christmas Classic (2002)
EAC Rip | FLAC (tracks+.cue+log) - 240 MB | MP3 CBR 320 kbps (LAME 3.93) - 91 MB | Covers - 167 MB
Genre: New Age | RAR 3% Rec. | Label: Gemini Sun Records (GSR4040)

Tracklist:
01. Ave Maria
02. Angels We Have Heard On High
03. We Three Kings Of Orient Are
04. Cori's Christmas
05. God Rest You Merry Gentlemen
06. Deck The Halls
07. Annabelle's Christmas
08. Silent Night, Holy Night
09. Joy To The World
10. Hark! The Herald Angels Sing
11. Good King Wenceslas
12. Auld Lang Syne

Total time: 38:54

Exact Audio Copy V0.99 prebeta 5 from 4. May 2009

EAC extraction logfile from 31. October 2010, 22:03

Nicholas Gunn / A Christmas Classic

Used drive : PLEXTOR DVDR PX-760A Adapter: 3 ID: 0

Read mode : Secure
Utilize accurate stream : Yes
Defeat audio cache : Yes
Make use of C2 pointers : No

Read offset correction

: 30
Overread into Lead-In and Lead-Out : No
Fill up missing offset samples with silence : Yes
Delete leading and trailing silent blocks : No
Null samples used in CRC calculations : Yes
Used interface
: Installed external ASPI interface
Gap handling
: Appended to previous track

Used output format : User Defined Encoder
Selected bitrate : 128 kBit/s
Quality : Low
Add ID3 tag : No
Command line compressor : C:\Program Files\Exact Audio Copy\Flac\flac.exe
Additional command line options : -8 -V -T "ARTIST=%a" -T "TITLE=%t" -T "ALBUM=%g" -T "DATE=%y" -T "TRACKNUMBER=%n" -T "GENRE=%m" -T "COMMENT=ripped by DrStandBy" %s

TOC of the extracted CD Track | Start | Length | Start sector | End sector
-----------1 | 0:00.00 | 2:46.25 | 0 | 12474 2 | 2:46.25 | 3:02.52 | 12475 | 26176 3 | 5:49.02 | 3:39.55 | 26177 | 42656 4 | 9:28.57 | 4:52.35 | 42657 | 64591 5 | 14:21.17 | 2:48.60 | 64592 | 77251 6 | 17:10.02 | 2:04.28 | 77252 | 86579 7 | 19:14.30 | 4:08.65 | 86580 | 105244 8 | 23:23.20 | 2:49.72 | 105245 | 117991 9 | 26:13.17 | 2:37.03 | 117992 | 129769
10 | 28:50.20 | 3:59.25 | 129770 | 147719
11 | 32:49.45 | 1:57.42 | 147720 | 156536
12 | 34:47.12 | 4:06.30 | 156537 | 175016

Track 1 Filename E:\Nicholas Gunn\2002 - A Christmas Classic (Gemini Sun #GSR4040)\01. Nicholas Gunn - Ave Maria.wav Pre-gap length 0:00:02.00 Peak level 98.8 %
Track quality 100.0 %
Test CRC E4B900A2
Copy CRC E4B900A2
Cannot be verified as accurate (confidence 1) [DA9F6412], AccurateRip returned [2ADE71B2]
Copy OK

Track 2 Filename E:\Nicholas Gunn\2002 - A Christmas Classic (Gemini Sun #GSR4040)\02. Nicholas Gunn - Angels We Have Heard On High.wav Pre-gap length 0:00:02.53 Peak level 98.9 %
Track quality 100.0 %
Test CRC 4FD45B6E
Copy CRC 4FD45B6E
Cannot be verified as accurate (confidence 1) [46F2332A], AccurateRip returned [FF3DEA2A]
Copy OK

Track 3 Filename E:\Nicholas Gunn\2002 - A Christmas Classic (Gemini Sun #GSR4040)\03. Nicholas Gunn - We Three Kings Of Orient Are.wav Pre-gap length 0:00:02.76 Peak level 98.8 %
Track quality 100.0 %
Test CRC 695A49D1
Copy CRC 695A49D1
Cannot be verified as accurate (confidence 1) [C48B1965], AccurateRip returned [F5601665]
Copy OK

Track 4 Filename E:\Nicholas Gunn\2002 - A Christmas Classic (Gemini Sun #GSR4040)\04. Nicholas Gunn - Cori's Christmas.wav Pre-gap length 0:00:02.46 Peak level 98.8 %
Track quality 100.0 %
Test CRC 88EBC1A1
Copy CRC 88EBC1A1
Cannot be verified as accurate (confidence 1) [4BDDD8F2], AccurateRip returned [0AC6D222]
Copy OK

Track 5 Filename E:\Nicholas Gunn\2002 - A Christmas Classic (Gemini Sun #GSR4040)\05. Nicholas Gunn - God Rest You Merry Gentlemen.wav Pre-gap length 0:00:02.56 Peak level 98.8 %
Track quality 100.0 %
Test CRC D74F8AC4
Copy CRC D74F8AC4
Cannot be verified as accurate (confidence 1) [5BA6EDAE], AccurateRip returned [4DDC905E]
Copy OK

Track 6 Filename E:\Nicholas Gunn\2002 - A Christmas Classic (Gemini Sun #GSR4040)\06. Nicholas Gunn - Deck The Halls.wav Pre-gap length 0:00:03.16 Peak level 98.8 %
Track quality 100.0 %
Test CRC 643354AA
Copy CRC 643354AA
Cannot be verified as accurate (confidence 1) [22A514B8], AccurateRip returned [2EC63B98]
Copy OK

Track 7 Filename E:\Nicholas Gunn\2002 - A Christmas Classic (Gemini Sun #GSR4040)\07. Nicholas Gunn - Annabelle's Christmas.wav Pre-gap length 0:00:02.13 Peak level 98.8 %
Track quality 100.0 %
Test CRC 20F9B721
Copy CRC 20F9B721
Cannot be verified as accurate (confidence 1) [E6A1C384], AccurateRip returned [E6C0488C]
Copy OK

Track 8 Filename E:\Nicholas Gunn\2002 - A Christmas Classic (Gemini Sun #GSR4040)\08. Nicholas Gunn - Silent Night, Holy Night.wav Pre-gap length 0:00:01.66 Peak level 98.8 %
Track quality 100.0 %
Test CRC 7130FE72
Copy CRC 7130FE72
Cannot be verified as accurate (confidence 1) [5565E05C], AccurateRip returned [7CE59944]
Copy OK

Track 9 Filename E:\Nicholas Gunn\2002 - A Christmas Classic (Gemini Sun #GSR4040)\09. Nicholas Gunn - Joy To The World.wav Pre-gap length 0:00:02.60 Peak level 98.8 %
Track quality 99.9 %
Test CRC 6745621F
Copy CRC 6745621F
Cannot be verified as accurate (confidence 1) [EE6B9956], AccurateRip returned [73F1CDC6]
Copy OK

Track 10 Filename E:\Nicholas Gunn\2002 - A Christmas Classic (Gemini Sun #GSR4040)\10. Nicholas Gunn - Hark! The Herald Angels Sing.wav Pre-gap length 0:00:02.93 Peak level 98.8 %
Track quality 100.0 %
Test CRC 907D4069
Copy CRC 907D4069
Cannot be verified as accurate (confidence 1) [FF42A85F], AccurateRip returned [5A72320F]
Copy OK

Track 11 Filename E:\Nicholas Gunn\2002 - A Christmas Classic (Gemini Sun #GSR4040)\11. Nicholas Gunn - Good King Wenceslas.wav Pre-gap length 0:00:02.70 Peak level 98.8 %
Track quality 99.9 %
Test CRC EE7D8FAB
Copy CRC EE7D8FAB
Cannot be verified as accurate (confidence 1) [A485893A], AccurateRip returned [6AAA161A]
Copy OK

Track 12 Filename E:\Nicholas Gunn\2002 - A Christmas Classic (Gemini Sun #GSR4040)\12. Nicholas Gunn - Auld Lang Syne.wav Pre-gap length 0:00:02.82 Peak level 98.8 %
Track quality 99.9 %
Test CRC AF3F6EF2
Copy CRC AF3F6EF2
Cannot be verified as accurate (confidence 1) [552E61E0], AccurateRip returned [F8DF7E10]
Copy OK

No tracks could be verified as accurate
You may have a different pressing from the one(s) in the database

No errors occurred

End of status report

[CUETools log; Date: 05.04.2015 23:08:37; Version: 2.1.4]
[CTDB TOCID: 86SCIxSlEZvf32yyjGvjFM56LU4-] found.
Track | CTDB Status
1 | (3/3) Accurately ripped
2 | (3/3) Accurately ripped
3 | (3/3) Accurately ripped
4 | (3/3) Accurately ripped
5 | (3/3) Accurately ripped
6 | (3/3) Accurately ripped
7 | (3/3) Accurately ripped
8 | (3/3) Accurately ripped
9 | (3/3) Accurately ripped
10 | (3/3) Accurately ripped
11 | (3/3) Accurately ripped
12 | (3/3) Accurately ripped
[AccurateRip ID: 00116cfe-00a2751f-98091d0c] found.
Track [ CRC | V2 ] Status
01 [da9f6412|07227de1] (1+0/2) Accurately ripped
02 [46f2332a|94c45c02] (1+0/2) Accurately ripped
03 [c48b1965|6b1d14ea] (1+0/2) Accurately ripped
04 [4bddd8f2|7f415b81] (1+0/2) Accurately ripped
05 [5ba6edae|afa90f03] (1+0/2) Accurately ripped
06 [22a514b8|fcfbd1bc] (1+0/2) Accurately ripped
07 [e6a1c384|7f664358] (1+0/2) Accurately ripped
08 [5565e05c|d838dceb] (1+0/2) Accurately ripped
09 [ee6b9956|792abccf] (1+0/2) Accurately ripped
10 [ff42a85f|e65d2029] (1+0/2) Accurately ripped
11 [a485893a|09aac284] (1+0/2) Accurately ripped
12 [552e61e0|f1689412] (1+0/2) Accurately ripped
Offsetted by -664:
01 [2ade71b2] (1/2) Accurately ripped
02 [ff3dea2a] (1/2) Accurately ripped
03 [f5601665] (1/2) Accurately ripped
04 [0ac6d222] (1/2) Accurately ripped
05 [4ddc905e] (1/2) Accurately ripped
06 [2ec63b98] (1/2) Accurately ripped
07 [e6c0488c] (1/2) Accurately ripped
08 [7ce59944] (1/2) Accurately ripped
09 [73f1cdc6] (1/2) Accurately ripped
10 [5a72320f] (1/2) Accurately ripped
11 [6aaa161a] (1/2) Accurately ripped
12 [f8df7e10] (1/2) Accurately ripped

Track Peak [ CRC32 ] [W/O NULL] [ LOG ]
-- 98,9 [EDFF936C] EF5CB04
01 98,8 [E4B900A2] [D3C32668] CRC32
02 98,9 [4FD45B6E] [34370E9C] CRC32
03 98,8 [695A49D1] [D8415AC7] CRC32
04 98,8 [88EBC1A1] [5B2A84E4] CRC32
05 98,8 [D74F8AC4] [582E2D37] CRC32
06 98,8 [643354AA] [F3969D89] CRC32
07 98,8 [20F9B721] [095754AC] CRC32
08 98,8 [7130FE72] [E00C21A5] CRC32
09 98,8 [6745621F] [E9A17A86] CRC32
10 98,8 [907D4069] [C9D78F12] CRC32
11 98,8 [EE7D8FAB] [47AA9A98] CRC32
12 98,8 [AF3F6EF2] [56315DDB] CRC32

http://i60.fastpic.ru/big/2015/0408/04/856d653a74e41bae0f3afc1b5e60dc04.jpg

Nicholas Gunn - Journey to Yellowstone (2003)
EAC Rip | FLAC (tracks+.cue+log) - 277 MB | MP3 CBR 320 kbps (LAME 3.93) - 100 MB | Covers - 218 MB
Genre: New Age | RAR 3% Rec. | Label: Gemini Sun Records (GSR4050)

Tracklist:
01. Emerald Spring
02. Canyons Of Gold
03. Seeking Serenity
04. NRebirth
05. Gateway To The Past
06. Black Dragon's Cauldron
07. Nature's Cry
08. Where The Buffalo Roam
09. Verbena Haven
10. Sunrise In Hayden Valley

Total time: 42:41

Exact Audio Copy V0.99 prebeta 5 from 4. May 2009

EAC extraction logfile from 29. October 2010, 12:13

Nicholas Gunn / Journey to Yellowstone

Used drive : PLEXTOR DVDR PX-760A Adapter: 3 ID: 0

Read mode : Secure
Utilize accurate stream : Yes
Defeat audio cache : Yes
Make use of C2 pointers : No

Read offset correction

: 30
Overread into Lead-In and Lead-Out : No
Fill up missing offset samples with silence : Yes
Delete leading and trailing silent blocks : No
Null samples used in CRC calculations : Yes
Used interface
: Installed external ASPI interface
Gap handling
: Appended to previous track

Used output format : User Defined Encoder
Selected bitrate : 128 kBit/s
Quality : Low
Add ID3 tag : No
Command line compressor : C:\Program Files\Exact Audio Copy\Flac\flac.exe
Additional command line options : -8 -V -T "ARTIST=%a" -T "TITLE=%t" -T "ALBUM=%g" -T "DATE=%y" -T "TRACKNUMBER=%n" -T "GENRE=%m" -T "COMMENT=ripped by DrStandBy" %s

TOC of the extracted CD Track | Start | Length | Start sector | End sector
-----------1 | 0:00.00 | 3:52.50 | 0 | 17449 2 | 3:52.50 | 5:15.20 | 17450 | 41094 3 | 9:07.70 | 2:53.65 | 41095 | 54134 4 | 12:01.60 | 4:21.00 | 54135 | 73709 5 | 16:22.60 | 4:01.20 | 73710 | 91804 6 | 20:24.05 | 4:59.32 | 91805 | 114261 7 | 25:23.37 | 4:17.08 | 114262 | 133544 8 | 29:40.45 | 5:31.47 | 133545 | 158416 9 | 35:12.17 | 2:39.45 | 158417 | 170386
10 | 37:51.62 | 4:49.30 | 170387 | 192091

Track 1 Filename E:\Nicholas Gunn\2003 - Journey to Yellowstone (Gemini Sun #GSR4050)\01. Nicholas Gunn - Emerald Spring.wav Pre-gap length 0:00:02.00 Peak level 98.8 %
Track quality 100.0 %
Test CRC B296C569
Copy CRC B296C569
Accurately ripped (confidence 1) [FCBE090B]
Copy OK

Track 2 Filename E:\Nicholas Gunn\2003 - Journey to Yellowstone (Gemini Sun #GSR4050)\02. Nicholas Gunn - Canyons Of Gold.wav Peak level 98.8 %
Track quality 100.0 %
Test CRC 88C65691
Copy CRC 88C65691
Accurately ripped (confidence 1) [82990730]
Copy OK

Track 3 Filename E:\Nicholas Gunn\2003 - Journey to Yellowstone (Gemini Sun #GSR4050)\03. Nicholas Gunn - Seeking Serenity.wav Pre-gap length 0:00:01.84 Peak level 98.8 %
Track quality 100.0 %
Test CRC 2FB9AB31
Copy CRC 2FB9AB31
Accurately ripped (confidence 1) [EA0F6E7E]
Copy OK

Track 4 Filename E:\Nicholas Gunn\2003 - Journey to Yellowstone (Gemini Sun #GSR4050)\04. Nicholas Gunn - Rebirth.wav Peak level 98.9 %
Track quality 99.9 %
Test CRC C908C816
Copy CRC C908C816
Accurately ripped (confidence 1) [018D4910]
Copy OK

Track 5 Filename E:\Nicholas Gunn\2003 - Journey to Yellowstone (Gemini Sun #GSR4050)\05. Nicholas Gunn - Gateway To The Past.wav Peak level 98.9 %
Track quality 100.0 %
Test CRC 22D3A342
Copy CRC 22D3A342
Accurately ripped (confidence 1) [F4487927]
Copy OK

Track 6 Filename E:\Nicholas Gunn\2003 - Journey to Yellowstone (Gemini Sun #GSR4050)\06. Nicholas Gunn - Black Dragon's Cauldron.wav Peak level 98.8 %
Track quality 100.0 %
Test CRC 145175C8
Copy CRC 145175C8
Accurately ripped (confidence 1) [CF7DE680]
Copy OK

Track 7 Filename E:\Nicholas Gunn\2003 - Journey to Yellowstone (Gemini Sun #GSR4050)\07. Nicholas Gunn - Nature's Cry.wav Peak level 98.8 %
Track quality 100.0 %
Test CRC 0B5E63CC
Copy CRC 0B5E63CC
Accurately ripped (confidence 1) [E883E069]
Copy OK

Track 8 Filename E:\Nicholas Gunn\2003 - Journey to Yellowstone (Gemini Sun #GSR4050)\08. Nicholas Gunn - Where The Buffalo Roam.wav Pre-gap length 0:00:02.24 Peak level 98.9 %
Track quality 100.0 %
Test CRC ABAAB53B
Copy CRC ABAAB53B
Accurately ripped (confidence 1) [29CFE85B]
Copy OK

Track 9 Filename E:\Nicholas Gunn\2003 - Journey to Yellowstone (Gemini Sun #GSR4050)\09. Nicholas Gunn - Verbena Haven.wav Peak level 61.5 %
Track quality 100.0 %
Test CRC F647062D
Copy CRC F647062D
Accurately ripped (confidence 1) [6030B2FA]
Copy OK

Track 10 Filename E:\Nicholas Gunn\2003 - Journey to Yellowstone (Gemini Sun #GSR4050)\10. Nicholas Gunn - Sunrise In Hayden Valley.wav Peak level 98.8 %
Track quality 100.0 %
Test CRC A9E4E63B
Copy CRC A9E4E63B
Accurately ripped (confidence 1) CEDA806
Copy OK

All tracks accurately ripped

No errors occurred

End of status report

[CUETools log; Date: 05.04.2015 23:08:58; Version: 2.1.4]
[CTDB TOCID: 6qnH4QCAP_gN6GjX.j8MDoRXFrk-] found.
Track | CTDB Status
1 | (3/3) Accurately ripped
2 | (3/3) Accurately ripped
3 | (3/3) Accurately ripped
4 | (3/3) Accurately ripped
5 | (3/3) Accurately ripped
6 | (3/3) Accurately ripped
7 | (3/3) Accurately ripped
8 | (3/3) Accurately ripped
9 | (3/3) Accurately ripped
10 | (3/3) Accurately ripped
[AccurateRip ID: 000ff972-00803fc7-7e0a010a] found.
Track [ CRC | V2 ] Status
01 [fcbe090b|1fb198be] (2+2/4) Accurately ripped
02 [82990730|95171ed8] (2+2/4) Accurately ripped
03 [ea0f6e7e|b2602b27] (2+2/4) Accurately ripped
04 [018d4910|3e1de239] (2+2/4) Accurately ripped
05 [f4487927|ae569811] (2+2/4) Accurately ripped
06 [cf7de680|7b1687d2] (2+2/4) Accurately ripped
07 [e883e069|40192d41] (2+2/4) Accurately ripped
08 [29cfe85b|1fc79b3b] (2+2/4) Accurately ripped
09 [6030b2fa|b5072137] (2+2/4) Accurately ripped
10 ceda806|891ce515 (2+2/4) Accurately ripped

Track Peak [ CRC32 ] [W/O NULL] [ LOG ]
-- 98,9 [EA288C1B] [C2BC536A]
01 98,8 296C569 [342EB1A0] CRC32
02 98,8 [88C65691] [E02B92F0] CRC32
03 98,8 [2FB9AB31] [DD1D04E1] CRC32
04 98,8 [C908C816] [1C543725] CRC32
05 98,9 [22D3A342] [1D1E687F] CRC32
06 98,8 [145175C8] B2690A3 CRC32
07 98,8 [0B5E63CC] [A2BB85B5] CRC32
08 98,9 [ABAAB53B] [069A8A63] CRC32
09 61,5 [F647062D] [360F5844] CRC32
10 98,8 [A9E4E63B] [3EC34AEC] CRC32

http://i57.fastpic.ru/big/2015/0408/e7/f294a25ea04239a6de5e353f96a1f5e7.jpg

Nicholas Gunn - Breathe (2004)
EAC Rip | FLAC (tracks+.cue+log) - 269 MB | MP3 CBR 320 kbps (LAME 3.93) - 96 MB | Covers - 162 MB
Genre: New Age | RAR 3% Rec. | Label: Gemini Sun Records (GSR4050)

Tracklist:
01. Breathe
02. Prelude
03. Embrace
04. Viaje Sagrado
05. En el Templo Antiguo
06. La Morada en el el Templo Antiguo
07. The Yearning
08. Deep Water Island
09. Rosarita Sunset
10. Apasionado Uno
11. Bamboo

Total time: 40:57

Exact Audio Copy V0.99 prebeta 5 from 4. May 2009

EAC extraction logfile from 21. November 2010, 22:09

Nicholas Gunn / Breathe

Used drive : HL-DT-STDVDRAM GH22NS50 Adapter: 7 ID: 0

Read mode : Secure
Utilize accurate stream : Yes
Defeat audio cache : Yes
Make use of C2 pointers : No

Read offset correction

: 667
Overread into Lead-In and Lead-Out : No
Fill up missing offset samples with silence : Yes
Delete leading and trailing silent blocks : No
Null samples used in CRC calculations : Yes
Used interface
: Installed external ASPI interface
Gap handling
: Appended to previous track

Used output format : User Defined Encoder
Selected bitrate : 128 kBit/s
Quality : Low
Add ID3 tag : No
Command line compressor : C:\Program Files\Exact Audio Copy\Flac\flac.exe
Additional command line options : -8 -V -T "ARTIST=%a" -T "TITLE=%t" -T "ALBUM=%g" -T "DATE=%y" -T "TRACKNUMBER=%n" -T "GENRE=%m" -T "COMMENT=ripped by DrStandBy" %s

TOC of the extracted CD Track | Start | Length | Start sector | End sector
-----------1 | 0:00.00 | 3:50.07 | 0 | 17256 2 | 3:50.07 | 0:44.11 | 17257 | 20567 3 | 4:34.18 | 4:44.04 | 20568 | 41871 4 | 9:18.22 | 3:50.34 | 41872 | 59155 5 | 13:08.56 | 2:37.27 | 59156 | 70957 6 | 15:46.08 | 3:39.10 | 70958 | 87392 7 | 19:25.18 | 3:21.13 | 87393 | 102480 8 | 22:46.31 | 4:22.13 | 102481 | 122143 9 | 27:08.44 | 4:19.07 | 122144 | 141575
10 | 31:27.51 | 4:01.64 | 141576 | 159714
11 | 35:29.40 | 5:27.65 | 159715 | 184304

Track 1 Filename E:\Nicholas Gunn\2004 - Breathe (Gemini Sun #GSR4060)\01. Nicholas Gunn - Breathe.wav Pre-gap length 0:00:02.00 Peak level 96.6 %
Track quality 100.0 %
Test CRC 7E6701BF
Copy CRC 7E6701BF
Track not present in AccurateRip database
Copy OK

Track 2 Filename E:\Nicholas Gunn\2004 - Breathe (Gemini Sun #GSR4060)\02. Nicholas Gunn - Prelude.wav Peak level 96.5 %
Track quality 99.7 %
Test CRC FA7E5690
Copy CRC FA7E5690
Track not present in AccurateRip database
Copy OK

Track 3 Filename E:\Nicholas Gunn\2004 - Breathe (Gemini Sun #GSR4060)\03. Nicholas Gunn - Embrace.wav Peak level 96.5 %
Track quality 100.0 %
Test CRC 91F6E3BD
Copy CRC 91F6E3BD
Track not present in AccurateRip database
Copy OK

Track 4 Filename E:\Nicholas Gunn\2004 - Breathe (Gemini Sun #GSR4060)\04. Nicholas Gunn - Viaje Sagrado (Sacred Journey).wav Pre-gap length 0:00:00.21 Peak level 96.5 %
Track quality 99.9 %
Test CRC C5AC1679
Copy CRC C5AC1679
Track not present in AccurateRip database
Copy OK

Track 5 Filename E:\Nicholas Gunn\2004 - Breathe (Gemini Sun #GSR4060)\05. Nicholas Gunn - En el Templo Antiquo (Into the Ancient Temple).wav Peak level 96.4 %
Track quality 100.0 %
Test CRC 54DA3766
Copy CRC 54DA3766
Track not present in AccurateRip database
Copy OK

Track 6 Filename E:\Nicholas Gunn\2004 - Breathe (Gemini Sun #GSR4060)\06. Nicholas Gunn - La Morada en el Templo Antiguo (Dwelling in the Ancient Temple).wav Peak level 96.5 %
Track quality 99.9 %
Test CRC AF5B0C83
Copy CRC AF5B0C83
Track not present in AccurateRip database
Copy OK

Track 7 Filename E:\Nicholas Gunn\2004 - Breathe (Gemini Sun #GSR4060)\07. Nicholas Gunn - The Yearning.wav Peak level 96.6 %
Track quality 100.0 %
Test CRC 3CA99758
Copy CRC 3CA99758
Track not present in AccurateRip database
Copy OK

Track 8 Filename E:\Nicholas Gunn\2004 - Breathe (Gemini Sun #GSR4060)\08. Nicholas Gunn - Deep Water Island.wav Peak level 96.5 %
Track quality 100.0 %
Test CRC E0424EB3
Copy CRC E0424EB3
Track not present in AccurateRip database
Copy OK

Track 9 Filename E:\Nicholas Gunn\2004 - Breathe (Gemini Sun #GSR4060)\09. Nicholas Gunn - Rosarita Sunset.wav Pre-gap length 0:00:01.13 Peak level 96.5 %
Track quality 100.0 %
Test CRC F71BD0D5
Copy CRC F71BD0D5
Track not present in AccurateRip database
Copy OK

Track 10 Filename E:\Nicholas Gunn\2004 - Breathe (Gemini Sun #GSR4060)\10. Nicholas Gunn - Apasionado Uno (Passionate One).wav Peak level 96.5 %
Track quality 100.0 %
Test CRC F1978604
Copy CRC F1978604
Track not present in AccurateRip database
Copy OK

Track 11 Filename E:\Nicholas Gunn\2004 - Breathe (Gemini Sun #GSR4060)\11. Nicholas Gunn - Bamboo.wav Peak level 96.5 %
Track quality 100.0 %
Test CRC BCC24CA1
Copy CRC BCC24CA1
Track not present in AccurateRip database
Copy OK

None of the tracks are present in the AccurateRip database

No errors occurred

End of status report

[CUETools log; Date: 05.04.2015 23:11:54; Version: 2.1.4]
[CTDB TOCID: mQNIHLf8dPBB_JQwWVJmPXvgfR4-] found.
Track | CTDB Status
1 | (4/4) Accurately ripped
2 | (4/4) Accurately ripped
3 | (4/4) Accurately ripped
4 | (4/4) Accurately ripped
5 | (4/4) Accurately ripped
6 | (4/4) Accurately ripped
7 | (4/4) Accurately ripped
8 | (4/4) Accurately ripped
9 | (4/4) Accurately ripped
10 | (4/4) Accurately ripped
11 | (4/4) Accurately ripped
[AccurateRip ID: 000f5f41-0087cf3f-9409990b] found.
Track [ CRC | V2 ] Status
01 [40f5a201|1bf280e2] (0+0/3) No match
02 [ccc78a32|c46c6daf] (0+0/3) No match
03 [dbe7c081|591b1919] (0+0/3) No match
04 [07e1d9d9|f211bb38] (0+0/3) No match
05 [09b8bee5|652107e8] (0+0/3) No match
06 [c7f276d3|452db12e] (0+0/3) No match
07 [1dcf5e9f|5d6d80f9] (0+0/3) No match
08 [4587c9c7|64fa5463] (0+0/3) No match
09 [6e5feaf2|18d7bcbf] (0+0/3) No match
10 [22d3937d|3079a93f] (0+0/3) No match
11 [08129430|e17f7878] (0+0/3) No match
Offsetted by -86:
01 [f388e6c1] (0/3) No match (V2 was not tested)
02 [4c5a1f4d] (0/3) No match (V2 was not tested)
03 [a1ace8ca] (0/3) No match (V2 was not tested)
04 [1a86f982] (0/3) No match (V2 was not tested)
05 [28641a76] (0/3) No match (V2 was not tested)
06 [56149f8d] (0/3) No match (V2 was not tested)
07 [f20bb619] (0/3) No match (V2 was not tested)
08 [7021e711] (0/3) No match (V2 was not tested)
09 [0450a90b] (0/3) No match (V2 was not tested)
10 [c400848b] (0/3) No match (V2 was not tested)
11 [e1e08a43] (0/3) No match (V2 was not tested)

Track Peak [ CRC32 ] [W/O NULL] [ LOG ]
-- 96,6 [47C0505E] 1D362B3
01 96,6 [7E6701BF] [425DCAD1] CRC32
02 96,5 [FA7E5690] [88C82501] CRC32
03 96,5 [91F6E3BD] [E58B40E9] CRC32
04 96,5 [C5AC1679] [CE20B676] CRC32
05 96,4 [54DA3766] [4E54E34C] CRC32
06 96,5 [AF5B0C83] [5E43C0CB] CRC32
07 96,6 [3CA99758] 4945EDB CRC32
08 96,5 [E0424EB3] [89A43370] CRC32
09 96,5 [F71BD0D5] [6EF8FA07] CRC32
10 96,5 [F1978604] [5AD971D5] CRC32
11 96,5 CC24CA1 [81C887C7] CRC32

Thanks to DrStandBy
DOWNLOAD LINKS:
Buy Premium To Support Me & Get Resumable Support & Max Speed


Links are Interchangeable - No Password - Single Extraction

 
 
 
Dear visitor, you went to the site as an unregistered user. We encourage you to register or enter the site under your name.
 
   
 
 (Votes #: 0)