2013Zone For Latest Downloads

 
     
 
Legal Downloads » Music » The Three Degrees - Maybe (1970) & So Much Love (1975) [2012, Deluxe Expanded Edition]
Menu
Home Applications
Games Movies
Music TV Shows
Torrents Graphics

Sitemap

RSS
 
Advanced Search
Last News
Site Info
Top Contributors:
  1    supper88 32766
  2    admin 32671
  3    Whisky 10080
  4    Shark_ 8911
  5    creativelivenew 8706
  6    whathesupa 2799
  7    candymypost 840
  8    hvnteam 629
  9    vuong87 3


Articles:
  This Hour: 0
  Today: 0
  This Month: 40
  All Time: 515636


Torrents:
  Today: 0
  Yesterday: 0
  All Time: 156702


Membership:
  Registered Today :0
  This Hour:0
  This Month:0
  Total:14
  Banned:1

{online}
{inform_torrent}
Friend:
We Recomend
Trend
Trend

Search In Site

Music : The Three Degrees - Maybe (1970) & So Much Love (1975) [2012, Deluxe Expanded Edition]
 
http://i66.fastpic.ru/big/2015/0408/84/cb07515224b837305ac31de0c4a0b384.jpg

The Three Degrees - Maybe (1970) & So Much Love (1975) [2012, Deluxe Expanded Edition]
R&B, Pop/Rock, Soul, Disco | EAC Rip | FLAC, Tracks+CUE + LOG + Full Scans-600dpi (JPEG) | 72:35 + 77:59 Min | 837,66 Mb
Label: EMI Records Ltd. (USA) / Big Break Records (EC/MCPS) | Released: 2012, October, 8

"
Digitally remastered and expanded special two CD edition of the Soul vocal trio's 1970 debut. They are the longest running girl group in the world and Maybe was their debut album in 1970, it put them on the musical map after a couple of years without major success. After later hits on Philadelphia International Records, Roulette put together an album of mainly unreleased material - the result was So Much Love, which is reproduced in its entirety on the second disc in this deluxe reissue. Released in a deluxe Super Jewel case, with 22 bonus tracks, Maybe is a must for all Soul and Pop fans out there!
"

http://i68.fastpic.ru/big/2015/0408/59/686d1459ddacdb9c0d672500004e0d59.jpg

http://i66.fastpic.ru/big/2015/0408/d4/13cbb040a1d1bc147d263a160d78b2d4.jpg

http://i66.fastpic.ru/big/2015/0408/2e/8d190944d31aed3732f3eeb9d07a142e.jpg


Release of those albums: "Maybe" - 1970 [LP Roulette Records, Cat.# SR-42050, USA]; "So Much Love" - 1975 [LP Roulette Records, Cat.# SR-3015, USA]
Release of this CD: 2012, October, 8 [CD Big Break Records (BBR) (EC/MCPS), Cat.# CDBBRX0180 / UPC: 5013929048034]
This compilation ℗&© 2012 Big Break Records (BBR)
℗ 1970-1972, 1975, 1995 & 2012 EMI Records Ltd.
Marketed & Distributed by Cherry Pop Records

Tracklist:

Disc 1 - "Maybe" (1970):

01. "Collage" (03:00)
(J. Walsh / P. Cullie)
02. "You're The One" (03:24)
(S. Stewart)
03. "Sugar On Sunday" (03:22)
(T. James / M. Vale)
04. "Maybe" (05:39)
(R. Barrett)
05. "You're The Fool" (02:49)
(S. McMahan)
06. "MacArthur Park" (06:44)
(J. Webb)
07. "Rosegarden" (02:44)
(J. South)
08. "Stardust" (03:55)
(H. Carmichael / M. Parish)
09. "Lonely Town" (02:53)
(M. Gentile / J. Lambert)
10. "The Magic Door" (02:33)
(S. Lama / Y. Gilbert / C. Otis)

Bonus Tracks:

11. "Melting Pot" (Mono Version) (03:30)
(R. Greenaway / R. Cook)
12. "The Grass Will Sing For You" (Mono Version) (03:22)
(T. Bruno / V. Millrose)
13. "Maybe" (Mono Version) (03:40)
(R. Barrett)
14. "Collage" (Mono Version) (03:00)
(J. Walsh / P. Cullie)
15. "Sugar On Sunday" (Mono Version) (03:20)
(T. James / M. Vale)
16. "I Do Take You" (Mono Version) (03:16)
(M. March / B. Keyes)
17. "You're The Fool" (Mono Version) (02:46)
(S. McMahan)
18. "You're The One" (Mono Version) (03:23)
(S. Stewart)
19. "Stardust" (Mono Version) (03:55)
(H. Carmichael / M. Parish)
20. "There's So Much Love All Around Me" (Mono Version) (02:18)
(G. Illingworth / P. Vance)
21. "Yours" (Long Single Version) (Previously Unreleased) (03:02)
(A. Gamse / G. Roig / J. Sherr)

Disc 2 - "So Much Love" (1975):

01. "Magic Mirror" (03:13)
(B. Eli / J. Grant)
02. "Trade Winds" (04:33)
(R. MacDonald / W. Salter)
03. "Love The One You're With" (03:50)
(S. Stills)
04. "I Do Take You" (03:16)
(M. March)
05. "Who Is She (And What Is She To You)" (03:17)
(B. Withers / S. McKenney)
06. "There's So Much Love All Around Me" (02:39)
(G. Illingworth / P. Vance)
07. "Ebb Tide" (02:55)
(C. Sigman / R. Maxwell)
08. "Caught Between Two Fires" (03:09)
(V. Thomas)
09. "Maybe" (05:37)
(R. Barrett)
10. "If You Must Leave My Life" (03:13)
(J. Webb)

Bonus Tracks:

11. "Ebb Tide" (Mono Version) (03:17)
(C. Sigman / R. Maxwell)
12. "Lowdown" (Mono Version) (03:13)
(P. Cetera / D. Seraphine)
13. "Trade Winds" (Mono Version) (04:35)
(R. MacDonald / W. Salter)
14. "I Turn To You" (Mono Version) (03:16)
(T. Camillo)
15. "I Wanna Be Your Baby" (Mono Version) (03:44)
(L. Huff)
16. "Find My Way" (Mono Version) (02:18)
(J. Melfi)
17. "I Won't Let You Go" (Mono Version) (02:58)
(R. MacDonald / W. Salter)
18. "Through Misty Eyes" (Mono Version) (03:07)
(O. Stevens / G. Salter)
19. "Requiem" (04:34)
(Writer unknown)
20. "Isn't It A Pity" (03:52)
(G. Harrison)
21. "Shades Of Green" (04:23)
(Writer unknown)
22. "Handle With Care" (Previously Unreleased) (03:00)
(Writer unknown)

Exact Audio Copy V1.0 beta 3 from 29. August 2011

EAC extraction logfile from 22. February 2013, 20:58

The Three Degrees / Maybe (Expanded Edition) - Disc 1

Used drive : ATAPI DVD DW 8X16X8X16 Adapter: 0 ID: 2

Read mode : Secure
Utilize accurate stream : Yes
Defeat audio cache : Yes
Make use of C2 pointers : No

Read offset correction

: 618
Overread into Lead-In and Lead-Out : No
Fill up missing offset samples with silence : Yes
Delete leading and trailing silent blocks : No
Null samples used in CRC calculations : Yes
Used interface
: Native Win32 interface for Win NT & 2000

Used output format : Internal WAV Routines
Sample format : 44.100 Hz; 16 Bit; Stereo

TOC of the extracted CD Track | Start | Length | Start sector | End sector
-----------1 | 0:00.00 | 3:00.32 | 0 | 13531 2 | 3:00.32 | 3:24.39 | 13532 | 28870 3 | 6:24.71 | 3:22.02 | 28871 | 44022 4 | 9:46.73 | 5:39.04 | 44023 | 69451 5 | 15:26.02 | 2:49.48 | 69452 | 82174 6 | 18:15.50 | 6:44.06 | 82175 | 112480 7 | 24:59.56 | 2:44.23 | 112481 | 124803 8 | 27:44.04 | 3:55.52 | 124804 | 142480 9 | 31:39.56 | 2:53.18 | 142481 | 155473
10 | 34:32.74 | 2:33.03 | 155474 | 166951
11 | 37:06.02 | 3:30.62 | 166952 | 182763
12 | 40:36.64 | 3:22.02 | 182764 | 197915
13 | 43:58.66 | 3:40.07 | 197916 | 214422
14 | 47:38.73 | 3:00.40 | 214423 | 227962
15 | 50:39.38 | 3:20.31 | 227963 | 242993
16 | 53:59.69 | 3:16.64 | 242994 | 257757
17 | 57:16.58 | 2:46.18 | 257758 | 270225
18 | 60:03.01 | 3:23.20 | 270226 | 285470
19 | 63:26.21 | 3:55.08 | 285471 | 303103
20 | 67:21.29 | 2:18.12 | 303104 | 313465
21 | 69:39.41 | 3:02.50 | 313466 | 327165

Range status and errors

Selected range Filename C:\BlondStyle\Disc 1.wav Peak level 96.6 %
Extraction speed 9.1 X
Range quality 100.0 %
Test CRC 94596EE6
Copy CRC 94596EE6
Copy OK

No errors occurred


AccurateRip summary

Track 1 not present in database
Track 2 not present in database
Track 3 not present in database
Track 4 not present in database
Track 5 not present in database
Track 6 not present in database
Track 7 not present in database
Track 8 not present in database
Track 9 not present in database
Track 10 not present in database
Track 11 not present in database
Track 12 not present in database
Track 13 not present in database
Track 14 not present in database
Track 15 not present in database
Track 16 not present in database
Track 17 not present in database
Track 18 not present in database
Track 19 not present in database
Track 20 not present in database
Track 21 not present in database

None of the tracks are present in the AccurateRip database

End of status report

==== Log checksum 7FBBA9BB0C4B0A57E87EAE769F27E5EA4A1549D3AB2F153AE19B44B7F9A7050C ====

Exact Audio Copy V1.0 beta 3 from 29. August 2011

EAC extraction logfile from 22. February 2013, 21:52

The Three Degrees / Maybe (Expanded Edition) - Disc 2

Used drive : ATAPI DVD DW 8X16X8X16 Adapter: 0 ID: 2

Read mode : Secure
Utilize accurate stream : Yes
Defeat audio cache : Yes
Make use of C2 pointers : No

Read offset correction

: 618
Overread into Lead-In and Lead-Out : No
Fill up missing offset samples with silence : Yes
Delete leading and trailing silent blocks : No
Null samples used in CRC calculations : Yes
Used interface
: Native Win32 interface for Win NT & 2000

Used output format : Internal WAV Routines
Sample format : 44.100 Hz; 16 Bit; Stereo

TOC of the extracted CD Track | Start | Length | Start sector | End sector
-----------1 | 0:00.00 | 3:13.01 | 0 | 14475 2 | 3:13.01 | 4:33.38 | 14476 | 34988 3 | 7:46.39 | 3:50.49 | 34989 | 52287 4 | 11:37.13 | 3:16.41 | 52288 | 67028 5 | 14:53.54 | 3:17.03 | 67029 | 81806 6 | 18:10.57 | 2:39.47 | 81807 | 93778 7 | 20:50.29 | 2:55.51 | 93779 | 106954 8 | 23:46.05 | 3:09.26 | 106955 | 121155 9 | 26:55.31 | 5:37.71 | 121156 | 146501
10 | 32:33.27 | 3:13.40 | 146502 | 161016
11 | 35:46.67 | 3:17.71 | 161017 | 175862
12 | 39:04.63 | 3:13.71 | 175863 | 190408
13 | 42:18.59 | 4:35.37 | 190409 | 211070
14 | 46:54.21 | 3:16.08 | 211071 | 225778
15 | 50:10.29 | 3:44.46 | 225779 | 242624
16 | 53:55.00 | 2:18.57 | 242625 | 253031
17 | 56:13.57 | 2:58.16 | 253032 | 266397
18 | 59:11.73 | 3:07.66 | 266398 | 280488
19 | 62:19.64 | 4:34.36 | 280489 | 301074
20 | 66:54.25 | 3:52.68 | 301075 | 318542
21 | 70:47.18 | 4:23.69 | 318543 | 338336
22 | 75:11.12 | 3:00.05 | 338337 | 351841

Range status and errors

Selected range Filename C:\BlondStyle\Disc 2.wav Peak level 96.6 %
Extraction speed 9.8 X
Range quality 100.0 %
Test CRC 0739CD4E
Copy CRC 0739CD4E
Copy OK

No errors occurred


AccurateRip summary

Track 1 not present in database
Track 2 not present in database
Track 3 not present in database
Track 4 not present in database
Track 5 not present in database
Track 6 not present in database
Track 7 not present in database
Track 8 not present in database
Track 9 not present in database
Track 10 not present in database
Track 11 not present in database
Track 12 not present in database
Track 13 not present in database
Track 14 not present in database
Track 15 not present in database
Track 16 not present in database
Track 17 not present in database
Track 18 not present in database
Track 19 not present in database
Track 20 not present in database
Track 21 not present in database
Track 22 not present in database

None of the tracks are present in the AccurateRip database

End of status report

==== Log checksum CD27EE9B91A2DCAA3DE9297F640546B16AC7684C11E2D13B66B73E6D3B646070 ====

-
Statistics for: Disc 1.wav
Number of Samples: 192373608
- left right

Peak value: -0.30 dB --- -0.30 dB
Avg RMS: -14.11 dB --- -14.42 dB
DR channel: 10.73 dB --- 11.23 dB
-

Official DR value: DR11
=

-
Statistics for: Disc 2.wav
Number of Samples: 206883096
- left right

Peak value: -0.30 dB --- -0.30 dB
Avg RMS: -13.86 dB --- -13.82 dB
DR channel: 10.90 dB --- 10.82 dB
-

Official DR value: DR11
=
DOWNLOAD LINKS:
Buy Premium To Support Me & Get Resumable Support & Max Speed


Links are Interchangeable - No Password - Single Extraction

 
 
 
Dear visitor, you went to the site as an unregistered user. We encourage you to register or enter the site under your name.
 
   
 
 (Votes #: 0)