2013Zone For Latest Downloads

 
     
 
Legal Downloads » Music » Rockin' Johnny Burgin - Greetings From Greaseland (2015)
Menu
Home Applications
Games Movies
Music TV Shows
Torrents Graphics

Sitemap

RSS
 
Advanced Search
Last News
Site Info
Top Contributors:
  1    supper88 32766
  2    admin 32671
  3    Whisky 10080
  4    Shark_ 8911
  5    creativelivenew 8706
  6    whathesupa 2799
  7    candymypost 840
  8    hvnteam 629
  9    vuong87 3


Articles:
  This Hour: 0
  Today: 0
  This Month: 40
  All Time: 515636


Torrents:
  Today: 0
  Yesterday: 0
  All Time: 156702


Membership:
  Registered Today :0
  This Hour:0
  This Month:0
  Total:14
  Banned:1

{online}
{inform_torrent}
Friend:
We Recomend
Trend
Trend

Search In Site

Music : Rockin' Johnny Burgin - Greetings From Greaseland (2015)
 
http://i57.fastpic.ru/big/2015/0408/2d/811a448095c5e237d74b631e25ba602d.jpg

Rockin' Johnny Burgin - Greetings From Greaseland (2015)
EAC Rip | FLAC (Img) + Cue + Log ~ 426 Mb | MP3 CBR320 ~ 154 Mb
Scans Included (JPG, 600 dpi) | RAR 5% Recovery
Blues | West Tone Records #WTR - 1503

"Delmark recording artist Rockin' Johnny Burgin is the new modern king of Chicago West Side blues. He recorded "Greetings from Greaseland" with the cream of the crop of the San Francisco Bay blues scene at California's funkiest studio, Greaseland. This CD, his sixth, features Aki Kumar on harp, Kid Andersen on gtr, Vance Ehlers on bass and June Core on drums. It also features the first recordings of Johnny on harp. There's some great chemistry and blues feeling on display on his first ever California recording with these great Bay area blues players."

http://i65.fastpic.ru/big/2015/0408/6a/344937674639709d30a6937d042c756a.jpg

Track List:

01. Love Me Like I Want It [04:56]
02. Cold Chills [03:48]
03. She's A Hit! [05:32]
04. The Western Horizon [05:31]
05. Telephone Angel [06:43]
06. The House Of The Rising Sun [03:44]
07. Empty Bed Blues [08:39]
08. Tribute to Big John Wrencher [04:35]
09. Havana Rock [04:30]
10. Homework [03:55]
11. Tell The World I Do [06:41]

Exact Audio Copy V1.0 beta 3 from 29. August 2011

Отчёт EAC об извлечении, выполненном 29. марта 2015, 14:39

Rockin' Johnny Burgin / Greetings From Greaseland

Дисковод: PLEXTOR DVDR PX-880SA Adapter: 1 ID: 0

Режим чтения : Достоверность
?спользование точного потока : Да
Отключение кэ?а аудио : Да
?спользование указателей C2 : Нет

Коррекция смещения при чтении : 6
Способность читать области Lead-in и Lead-out : Нет
Заполнение пропущенных сэмплов ти?иной : Да
Удаление блоков с ти?иной в начале и конце : Нет
При вычислениях CRC использовались нулевые сэмплы : Да
?нтерфейс : Установленный вне?ний ASPI-интерфейс

Выходной формат : Пользовательский кодировщик
Выбранный битрейт : 1024 kBit/s
Качество : Высокий
Добавление ID3-тега : Нет
Утилита сжатия : C:\Program Files\Exact Audio Copy\FLAC\FLAC.EXE
Дополнительные параметры : -10 -V -T "ARTIST=%artist%" -T "ALBUM=%albumtitle%" -T "DATE=%year%" -T "GENRE=%genre%" -T "COMMENT=ripped by izia1956" %source%

TOC извлечённого CD Трек | Старт | Длительность | Начальный сектор | Конечный сектор
-------
1 | 0:00.00 | 4:55.12 | 0 | 22136
2 | 4:55.12 | 3:47.72 | 22137 | 39233
3 | 8:43.09 | 5:31.29 | 39234 | 64087
4 | 14:14.38 | 5:30.05 | 64088 | 88842
5 | 19:44.43 | 6:42.61 | 88843 | 119053
6 | 26:27.29 | 3:43.23 | 119054 | 135801
7 | 30:10.52 | 8:38.73 | 135802 | 174724
8 | 38:49.50 | 4:34.57 | 174725 | 195331
9 | 43:24.32 | 4:29.34 | 195332 | 215540
10 | 47:53.66 | 3:54.68 | 215541 | 233158
11 | 51:48.59 | 6:40.19 | 233159 | 263177

Характеристики диапазона извлечения и сообщения об о?ибках

Выбранный диапазон ?мя файла D:\BitComet\Rockin' Johnny Burgin - Greetings From Greaseland(2015)(flac)\Rockin' Johnny Burgin - Greetings From Greaseland.wav Пиковый уровень 97.9 %
Скорость извлечения 2.7 X
Качество диапазона 100.0 %
CRC теста B7BACE72
CRC копии B7BACE72
Копирование... OK

О?ибок не произо?ло


AccurateRip: сводка

Трек 1 отсутствует в базе данных
Трек 2 отсутствует в базе данных
Трек 3 отсутствует в базе данных
Трек 4 отсутствует в базе данных
Трек 5 отсутствует в базе данных
Трек 6 отсутствует в базе данных
Трек 7 отсутствует в базе данных
Трек 8 отсутствует в базе данных
Трек 9 отсутствует в базе данных
Трек 10 отсутствует в базе данных
Трек 11 отсутствует в базе данных

Ни одного трека нет в базе AccurateRip

Конец отчёта

==== Контрольная сумма отчёта CC991B1FCEFAC80D3B110FF398BE2274822CA2C4FF9C118A4C2096546C8641B8 ====

foobar2000 1.2.6 / Dynamic Range Meter 1.1.1
log date: 2015-04-05 22:19:16

--
Analyzed: Rockin' Johnny Burgin / Greetings From Greaseland
--

DR Peak RMS Duration Track
--
DR7 -0.18 dB -8.04 dB 4:55 01-Love Me Like I Want It
DR7 -0.18 dB -8.18 dB 3:48 02-Cold Chills
DR7 -0.18 dB -8.37 dB 5:31 03-She's A Hit!
DR6 -0.18 dB -7.79 dB 5:30 04-The Western Horizon
DR8 -0.18 dB -10.36 dB 6:43 05-Telephone Angel
DR8 -0.18 dB -9.85 dB 3:43 06-The House Of The Rising Sun
DR8 -0.24 dB -10.59 dB 8:39 07-Empty Bed Blues
DR8 -0.27 dB -10.30 dB 4:35 08-Tribute to Big John Wrencher
DR7 -0.18 dB -8.50 dB 4:29 09-Havana Rock
DR8 -0.30 dB -9.91 dB 3:55 10-Homework
DR10 -0.18 dB -12.13 dB 6:40 11-Tell The World I Do
--

Number of tracks: 11
Official DR value: DR8

Samplerate: 44100 Hz
Channels: 2
Bits per sample: 16
Bitrate: 937 kbps
Codec: FLAC

[CUETools log; Date: 05.04.2015 22:46:51; Version: 2.1.5]
[CTDB TOCID: TDynQ6uMKpUHHYf6arZD6c.INoo-] disk not present in database.
[AccurateRip ID: 0017aaf5-00ceeedd-980db50b] disk not present in database.

Track Peak [ CRC32 ] [W/O NULL] [ LOG ]
-- 97,9 7BACE72 [83945CB8] CRC32
01 97,9 [E8C54768] [D7F23C7A]
02 97,9 [AB87F25C] 59A8B22
03 97,9 [CBDC8DB2] [7E570B80]
04 97,9 [1BA86274] [F907D2A9]
05 97,9 [C0944651] [6751E1A9]
06 97,9 [F6737A59] [FBF0A719]
07 97,2 [73F3C715] [4694D116]
08 96,9 [A3412B9A] [8DC8394C]
09 97,9 [7FE4E5FF] [98861919]
10 96,5 [7CA7F34C] [7D482145]
11 97,9 [7FA4A57E] [0AE4003D]

http://i67.fastpic.ru/big/2015/0408/5a/5139fd509367beee460ea3fa34c0f25a.jpg


DOWNLOAD LINKS:
Buy Premium To Support Me & Get Resumable Support & Max Speed


Links are Interchangeable - No Password - Single Extraction

 
 
 
Dear visitor, you went to the site as an unregistered user. We encourage you to register or enter the site under your name.
 
   
 
 (Votes #: 0)