2013Zone For Latest Downloads

 
     
 
Legal Downloads » Music » Bread - The Best Of Bread (1973) [2015 Audio Fidelity SACD AFZ5 197]
Menu
Home Applications
Games Movies
Music TV Shows
Torrents Graphics

Sitemap

RSS
 
Advanced Search
Last News
Site Info
Top Contributors:
  1    supper88 32766
  2    admin 32671
  3    Whisky 10080
  4    Shark_ 8911
  5    creativelivenew 8706
  6    whathesupa 2799
  7    candymypost 840
  8    hvnteam 629
  9    vuong87 3


Articles:
  This Hour: 0
  Today: 0
  This Month: 40
  All Time: 515636


Torrents:
  Today: 0
  Yesterday: 0
  All Time: 156702


Membership:
  Registered Today :0
  This Hour:0
  This Month:0
  Total:14
  Banned:1

{online}
{inform_torrent}
Friend:
We Recomend
Trend
Trend

Search In Site

Music : Bread - The Best Of Bread (1973) [2015 Audio Fidelity SACD AFZ5 197]
 
http://i57.fastpic.ru/big/2015/0408/34/c5e091e4685ba47d64e31165debb3534.jpg

Bread - The Best Of Bread (1973) [2015 Audio Fidelity SACD AFZ5 197]
EAC Secure Rip | FLAC (Image + Cue + Log) - 204 MB | Complete Scans (Jpeg 600 dpi) - 124 MB | MP3 (CBR320 Kbps) - 88 MB
Rock, Soft Rock | Audio Fidelity | AFZ5 197 | 34:01 minutes | Hosted On: NitroFlare &
CONTAINS CD LAYER ONLY

The Best of Bread is a multi-platinum compilation album by the band Bread. Bread was an American soft rock band from Los Angeles, California. They placed 13 songs on the Billboard Hot 100 chart between 1970 and 1977 and were an example of what later was labeled as soft rock.
Exact Audio Copy V1.0 beta 2 from 29. April 2011

EAC extraction logfile from 14. February 2015, 20:25

Bread / The Best Of Bread [2015 Audio Fidelity SACD AFZ5 197]

Used drive : HL-DT-STBD-RE BH14NS40 Adapter: 0 ID: 2

Read mode : Secure
Utilize accurate stream : Yes
Defeat audio cache : Yes
Make use of C2 pointers : No

Read offset correction

: 6
Overread into Lead-In and Lead-Out : No
Fill up missing offset samples with silence : Yes
Delete leading and trailing silent blocks : No
Null samples used in CRC calculations : Yes
Used interface
: Native Win32 interface for Win NT & 2000

Used output format : User Defined Encoder
Selected bitrate : 1024 kBit/s
Quality : High
Add ID3 tag : No
Command line compressor : C:\Program Files (x86)\Exact Audio Copy\Flac\flac.exe
Additional command line options : -V -5 -T "artist=%albumartist%" -T "title=%title%" -T "album=%albumtitle%" -T "date=%year%" -T "genre=%genre%" -T "tracknumber=%tracknr%" %source%

TOC of the extracted CD Track | Start | Length | Start sector | End sector
-----------1 | 0:00.00 | 3:17.02 | 0 | 14776 2 | 3:17.02 | 3:08.45 | 14777 | 28921 3 | 6:25.47 | 3:08.63 | 28922 | 43084 4 | 9:34.35 | 2:31.70 | 43085 | 54479 5 | 12:06.30 | 2:51.16 | 54480 | 67320 6 | 14:57.46 | 2:40.46 | 67321 | 79366 7 | 17:38.17 | 2:36.52 | 79367 | 91118 8 | 20:14.69 | 2:46.57 | 91119 | 103625 9 | 23:01.51 | 2:47.67 | 103626 | 116217
10 | 25:49.43 | 2:26.19 | 116218 | 127186
11 | 28:15.62 | 3:13.52 | 127187 | 141713
12 | 31:29.39 | 2:31.50 | 141714 | 153088

Range status and errors

Selected range Filename C:\EAC\Bread - (1973) The Best Of Bread [2015 Audio Fidelity SACD AFZ5 197]\Bread - The Best Of Bread [2015 Audio Fidelity SACD AFZ5 197].wav Peak level 97.4 %
Extraction speed 4.2 X
Range quality 100.0 %
Test CRC 4527B408
Copy CRC 4527B408
Copy OK

No errors occurred


AccurateRip summary

Track 1 not present in database
Track 2 not present in database
Track 3 not present in database
Track 4 not present in database
Track 5 not present in database
Track 6 not present in database
Track 7 not present in database
Track 8 not present in database
Track 9 not present in database
Track 10 not present in database
Track 11 not present in database
Track 12 not present in database

None of the tracks are present in the AccurateRip database

End of status report

==== Log checksum 946276FB5697988964B199DF242F854F14E6812C790FB57303C0EC9FD1497C8B ====

Track Listing:

01. Make It With You
02. Everything I Own
03. Diary
04. Baby I'm-A Want You
05. It Don't Matter To Me
06. If
07. Mother Freedom
08. Down On My Knees
09. Too Much love
10. Let Your Love Go
11. Look What You've Done
12. Truckin'

Album Released: 1973

Audio Fidelity SACD Released: March 10, 2015

Stereo CD and SACD Mastering: Steve Hoffman at Stephan Marsh Mastering
4.0 Analog To Digital High Definition DSD Digital Transfer: Gus Skinas, Super Audio Center, Boulder, CO

foobar2000 1.3.2 / Dynamic Range Meter 1.1.0
log date: 2015-04-05 23:55:29

--
Analyzed: Bread / The Best Of Bread [2015 Audio Fidelity SACD AFZ5 197]
--

DR Peak RMS Duration Track
--
DR11 -1.63 dB -15.09 dB 3:17 01-Make It With You
DR13 -0.31 dB -16.69 dB 3:09 02-Everything I Own
DR12 -0.38 dB -16.05 dB 3:09 03-Diary
DR9 -2.04 dB -15.25 dB 2:32 04-Baby I'm-A Want You
DR11 -0.45 dB -16.43 dB 2:51 05-It Don't Matter To Me
DR9 -3.94 dB -16.08 dB 2:41 06-If
DR12 -0.22 dB -14.24 dB 2:37 07-Mother Freedom
DR11 -0.28 dB -14.16 dB 2:47 08-Down On My Knees
DR11 -1.41 dB -15.37 dB 2:48 09-Too Much love
DR10 -1.06 dB -14.33 dB 2:26 10-Let Your Love Go
DR9 -1.29 dB -14.85 dB 3:14 11-Look What You've Done
DR11 -1.88 dB -14.43 dB 2:32 12-Truckin'
--

Number of tracks: 12
Official DR value: DR11

Samplerate: 44100 Hz
Channels: 2
Bits per sample: 16
Bitrate: 796 kbps
Codec: FLAC

http://i59.fastpic.ru/big/2015/0408/61/3eadd97d7b1c5057f3c313cf611eff61.jpg

http://i67.fastpic.ru/big/2015/0408/8c/b2916bc0b090af2c104b7ec6e852608c.jpg

http://i65.fastpic.ru/big/2015/0408/b6/df43226aa3e7e883298d05f94f2bdab6.jpg


DOWNLOAD LINKS:
Buy Premium To Support Me & Get Resumable Support & Max Speed


Links are Interchangeable - No Password - Single Extraction

 
 
 
Dear visitor, you went to the site as an unregistered user. We encourage you to register or enter the site under your name.
 
   
 
 (Votes #: 0)