2013Zone For Latest Downloads

 
     
 
Legal Downloads » Music » Epitaph - Still Standing Strong And Back In Town: Live At The Capitol, Hannover (2013)
Menu
Home Applications
Games Movies
Music TV Shows
Torrents Graphics

Sitemap

RSS
 
Advanced Search
Last News
Site Info
Top Contributors:
  1    supper88 32766
  2    admin 32671
  3    Whisky 10080
  4    Shark_ 8911
  5    creativelivenew 8706
  6    whathesupa 2799
  7    candymypost 840
  8    hvnteam 629
  9    vuong87 3


Articles:
  This Hour: 0
  Today: 20
  This Month: 58
  All Time: 515616


Torrents:
  Today: 0
  Yesterday: 20
  All Time: 156702


Membership:
  Registered Today :0
  This Hour:0
  This Month:0
  Total:14
  Banned:1

{online}
{inform_torrent}
Friend:
We Recomend
Trend
Trend
Ad1

Search In Site

Music : Epitaph - Still Standing Strong And Back In Town: Live At The Capitol, Hannover (2013)
 
http://i57.fastpic.ru/big/2015/0408/d2/c936e4797b2dccdded65f683e4af8fd2.jpg

Epitaph - Still Standing Strong And Back In Town: Live At The Capitol, Hannover (2013)
Rock | 2cd | EAC Rip | Flac + Cue + Log | covers
inakustik, INAK 9127 2CD | rec: 2012 | 990Mb

This is a journey through four decades of Epitaph history, including new and old songs, with new arrangements and a brilliant acoustic set as well. A unique live experience that impressively documents the musical achievement of a band that has a special place in German rock history.
The motto on 27 November 2012 was ?Still standing strong and back in town', when Cliff Jackson, Bernie Kolbe, Achim Poret and Heinz Glass hit the stage at the legendary music venue Capitol in Hannover.
For Epitaph this was ?a very special evening, a very special concert where we had the chance to welcome many friends and a whole bunch of people who have been with us in a variety of capacities over the years'. ~inakustik

Track listing
cd1:
01. Dancing With Ghosts (5:06)
02. Cold Rain (6:01)
03. Another Bloody Day (6:12)
04. Dead Mans Train (6:43)
05. Remember The Daze (10:18)
06. Ride The Storm (7:17)
07. Sad Song (4:26)
08. Crossroads (7:48)
09. Hole In My Head (6:36)
~ (60:26)

cd2:
01. Long Live The Children (5:33)
02. Woman (7:19)
03. Can't You See (6:56)
04. Big City (Acoustic) (6:19)
05. In Your Eyes (Acoustic) (4:57)
06. Visions (Acoustic) (4:11)
07. Stop, Look And Listen (13:02)
08. Ain't No Liar (5:33)
09. Going To Chicago (6:57)
10. Who Do You Love (10:26)
~ (71:15)

Exact Audio Copy V1.0 beta 1 from 15. November 2010

EAC extraction logfile from 3. July 2014, 15:16

Epitaph / Still Standing Strong And Back In Town (CD 1)

Used drive : HL-DT-STDVDRAM GH20NS10 Adapter: 0 ID: 1

Read mode : Secure
Utilize accurate stream : Yes
Defeat audio cache : Yes
Make use of C2 pointers : No

Read offset correction

: 667
Overread into Lead-In and Lead-Out : No
Fill up missing offset samples with silence : Yes
Delete leading and trailing silent blocks : No
Null samples used in CRC calculations : Yes
Used interface
: Installed external ASPI interface

Used output format : User Defined Encoder
Selected bitrate : 768 kBit/s
Quality : High
Add ID3 tag : No
Command line compressor : C:\Program Files\Exact Audio Copy\FLAC\FLAC.EXE
Additional command line options : -6 -V -T "ARTIST=%a" -T "TITLE=%t" -T "ALBUM=%g" -T "DATE=%y" -T "TRACKNUMBER=%n" -T "GENRE=%m" -T "COMMENT=%e" %j--picture="%i"%j %s -o %d

TOC of the extracted CD Track | Start | Length | Start sector | End sector
-----------1 | 0:00.00 | 5:06.04 | 0 | 22953 2 | 5:06.04 | 6:01.14 | 22954 | 50042 3 | 11:07.18 | 6:11.55 | 50043 | 77922 4 | 17:18.73 | 6:42.64 | 77923 | 108136 5 | 24:01.62 | 10:17.50 | 108137 | 154461 6 | 34:19.37 | 7:16.47 | 154462 | 187208 7 | 41:36.09 | 4:26.20 | 187209 | 207178 8 | 46:02.29 | 7:48.14 | 207179 | 242292 9 | 53:50.43 | 6:35.43 | 242293 | 271960

Range status and errors

Selected range Filename H:\ 123\Epitaph - Still Standing Strong And Back In Town (CD 1).wav Peak level 98.8 %
Extraction speed 0.7 X
Range quality 99.9 %
Copy CRC 049FADBE
Copy OK

No errors occurred


AccurateRip summary

Track 1 accurately ripped (confidence 1) [C14838CA]
Track 2 accurately ripped (confidence 1) [0D140B0F]
Track 3 accurately ripped (confidence 1) [32008F11]
Track 4 accurately ripped (confidence 1) [9BDBFA21]
Track 5 accurately ripped (confidence 1) [410615C9]
Track 6 accurately ripped (confidence 1) [123C1E61]
Track 7 accurately ripped (confidence 1) [ACBA7CC1]
Track 8 accurately ripped (confidence 1) [0AAEDCE9]
Track 9 accurately ripped (confidence 1) [1A036082]

All tracks accurately ripped

End of status report

-
Exact Audio Copy V1.0 beta 1 from 15. November 2010

EAC extraction logfile from 3. July 2014, 15:46

Epitaph / Still Standing Strong And Back In Town (CD 2)

Used drive : HL-DT-STDVDRAM GH20NS10 Adapter: 0 ID: 1

Read mode : Secure
Utilize accurate stream : Yes
Defeat audio cache : Yes
Make use of C2 pointers : No

Read offset correction

: 667
Overread into Lead-In and Lead-Out : No
Fill up missing offset samples with silence : Yes
Delete leading and trailing silent blocks : No
Null samples used in CRC calculations : Yes
Used interface
: Installed external ASPI interface

Used output format : User Defined Encoder
Selected bitrate : 768 kBit/s
Quality : High
Add ID3 tag : No
Command line compressor : C:\Program Files\Exact Audio Copy\FLAC\FLAC.EXE
Additional command line options : -6 -V -T "ARTIST=%a" -T "TITLE=%t" -T "ALBUM=%g" -T "DATE=%y" -T "TRACKNUMBER=%n" -T "GENRE=%m" -T "COMMENT=%e" %j--picture="%i"%j %s -o %d

TOC of the extracted CD Track | Start | Length | Start sector | End sector
-----------1 | 0:00.00 | 5:32.70 | 0 | 24969 2 | 5:32.70 | 7:19.35 | 24970 | 57929 3 | 12:52.30 | 6:56.35 | 57930 | 89164 4 | 19:48.65 | 6:18.74 | 89165 | 117588 5 | 26:07.64 | 4:57.06 | 117589 | 139869 6 | 31:04.70 | 4:11.13 | 139870 | 158707 7 | 35:16.08 | 13:02.30 | 158708 | 217387 8 | 48:18.38 | 5:32.69 | 217388 | 242356 9 | 53:51.32 | 6:56.66 | 242357 | 273622
10 | 60:48.23 | 10:26.18 | 273623 | 320590

Range status and errors

Selected range Filename H:\ 123\Epitaph - Still Standing Strong And Back In Town (CD 2).wav Peak level 98.8 %
Extraction speed 1.1 X
Range quality 100.0 %
Copy CRC 5A51389B
Copy OK

No errors occurred


AccurateRip summary

Track 1 accurately ripped (confidence 1) [771E5DC4]
Track 2 accurately ripped (confidence 1) [8D03DEF5]
Track 3 accurately ripped (confidence 1) [C222825A]
Track 4 accurately ripped (confidence 1) [3E41E21C]
Track 5 accurately ripped (confidence 1) [7C190F0F]
Track 6 accurately ripped (confidence 1) [51CB6A99]
Track 7 accurately ripped (confidence 1) [EED6FAF4]
Track 8 accurately ripped (confidence 1) D57D521
Track 9 accurately ripped (confidence 1) [F75835C7]
Track 10 accurately ripped (confidence 1) [9D905789]

All tracks accurately ripped

End of status report

[CUETools log; Date: 2015.04.05. 10:32:35; Version: 2.1.4]
[CTDB TOCID: tEr5mUejsoGPhfIN1yhF_4Pom30-] found.
Track | CTDB Status
1 | (3/3) Accurately ripped
2 | (3/3) Accurately ripped
3 | (3/3) Accurately ripped
4 | (3/3) Accurately ripped
5 | (3/3) Accurately ripped
6 | (3/3) Accurately ripped
7 | (3/3) Accurately ripped
8 | (3/3) Accurately ripped
9 | (3/3) Accurately ripped
[AccurateRip ID: 00142cb1-00963281-700e2a09] found.
Track [ CRC | V2 ] Status
01 [c14838ca|6f7ec513] (2+2/4) Accurately ripped
02 [0d140b0f|6352fdbc] (2+2/4) Accurately ripped
03 [32008f11|b9963d4d] (2+2/4) Accurately ripped
04 [9bdbfa21|04f7bb78] (2+2/4) Accurately ripped
05 [410615c9|2a3e3b1c] (2+2/4) Accurately ripped
06 [123c1e61|d91ff2d8] (2+2/4) Accurately ripped
07 [acba7cc1|5b276d0c] (2+2/4) Accurately ripped
08 [0aaedce9|245d7afb] (2+2/4) Accurately ripped
09 [1a036082|a17e2dd2] (2+2/4) Accurately ripped

Track Peak [ CRC32 ] [W/O NULL] [ LOG ]
-- 98,8 [049FADBE] [5B334DEB] CRC32
01 98,8 [F28AABF4] [745D1D05]
02 98,8 [D08056CC] [CF4DC3B2]
03 98,8 [71B6BDCE] [C104D3D0]
04 98,8 [1B061FE2] [11CE185B]
05 98,8 [1A8C90A7] [C34FB028]
06 98,8 [7AF13142] 4C4BD34
07 98,8 [FB788045] [3F0F1E5C]
08 98,8 [8E013092] 2E1C34D
09 98,8 [1C995044] [E33E71C2]

-----

[CUETools log; Date: 2015.04.05. 10:33:20; Version: 2.1.4]
[CTDB TOCID: IGrUIkAWGpPZ2rq4B.y_wCpSJLQ-] found.
Track | CTDB Status
1 | (3/3) Accurately ripped
2 | (3/3) Accurately ripped
3 | (3/3) Accurately ripped
4 | (3/3) Accurately ripped
5 | (3/3) Accurately ripped
6 | (3/3) Accurately ripped
7 | (3/3) Accurately ripped
8 | (3/3) Accurately ripped
9 | (3/3) Accurately ripped
10 | (3/3) Accurately ripped
[AccurateRip ID: 00190ecf-00caf738-8310b20a] found.
Track [ CRC | V2 ] Status
01 [771e5dc4|8c44e3a6] (2+2/4) Accurately ripped
02 [8d03def5|f9c776a8] (2+2/4) Accurately ripped
03 [c222825a|f8aebbfc] (2+2/4) Accurately ripped
04 [3e41e21c|370404cc] (2+2/4) Accurately ripped
05 [7c190f0f|8a92c758] (2+2/4) Accurately ripped
06 [51cb6a99|f5651e0a] (2+2/4) Accurately ripped
07 [eed6faf4|f9cdadb0] (2+2/4) Accurately ripped
08 d57d521|fd37b9e3 (2+2/4) Accurately ripped
09 [f75835c7|660c3769] (2+2/4) Accurately ripped
10 [9d905789|59ea4dd6] (2+2/4) Accurately ripped

Track Peak [ CRC32 ] [W/O NULL] [ LOG ]
-- 98,8 [5A51389B] [498A7820] CRC32
01 98,8 [2028348B] [EAC02501]
02 98,8 [23A059A5] [2A466565]
03 98,8 [6C92EFE1] [235E4274]
04 98,8 04CA923 [51EE4D19]
05 98,8 [7929E8BD] [16B88A1F]
06 98,8 [6B98B4D1] [18543DB8]
07 98,8 [2AC5E066] [F10582A1]
08 98,8 [2CFB2B8E] [51513AFB]
09 98,8 [3274850F] [21CE51BA]
10 98,8 [0CD835A3] [90D65C6F]

Thx to Thunder
DOWNLOAD LINKS:
Buy Premium To Support Me & Get Resumable Support & Max Speed


Links are Interchangeable - No Password - Single Extraction

Epitaph - Still Standing Strong And Back In Town: Live At The Capitol, Hannover (2013) Fast Download


Ad2

 
 
 
Dear visitor, you went to the site as an unregistered user. We encourage you to register or enter the site under your name.
 
   
 
 (Votes #: 0)