2013Zone For Latest Downloads

 
     
 
Legal Downloads » TV Shows » BBC - Caribbean with Simon Reeve (2015)
Menu
Home Applications
Games Movies
Music TV Shows
Torrents Graphics

Sitemap

RSS
 
Advanced Search
Last News
Site Info
Top Contributors:
  1    supper88 32766
  2    admin 32671
  3    Whisky 10080
  4    Shark_ 8911
  5    creativelivenew 8706
  6    whathesupa 2799
  7    candymypost 840
  8    hvnteam 629
  9    vuong87 3


Articles:
  This Hour: 0
  Today: 0
  This Month: 59
  All Time: 515636


Torrents:
  Today: 0
  Yesterday: 0
  All Time: 156702


Membership:
  Registered Today :0
  This Hour:0
  This Month:0
  Total:14
  Banned:1

{online}
{inform_torrent}
Friend:
We Recomend
Trend
Trend

Search In Site

TV Shows : BBC - Caribbean with Simon Reeve (2015)
 

http://i66.fastpic.ru/big/2015/0408/58/7d44501f85adb25a9ce66f4f9e888a58.jpg
BBC - Caribbean with Simon Reeve (2015)
HDTV | 1280x720 | .MP4/AVC @ 3021 Kbps | 3x~59min | Audio: English AAC 160 kbps, 2 channels | Subs: English | 3.95 GiB
Genre: Documentary

"Simon Reeve travels around the edge of the Caribbean Sea for a stunning new three-part series. With thousands of beautiful islands and a long mainland coast, the Caribbean is a vast area spanning a million square miles. Home to some of the most dangerous places on the planet, it is also one of the most vibrant, exciting and extreme regions on earth. With Simon's characteristic insight, humour and warmth, the series promises to bring to life the unique stories and beautiful landscapes of the Caribbean."

Part 1: Hispaniola
The adventurer travels around the islands and mainland coast of the Caribbean Sea, beginning on Hispaniola. He joins the Dominican Republic police's anti-narcotics division, before crossing the border to Haiti to see the notorious tented slums of Cite Soleil, while also discovering a vibrant, colourful and thriving side to the country. He ends this leg of his journey in Puerto Rico, an archipelago that is a territory of the United States, and examines the legacy of bombing and weapons testing on the island of Vieques.

Part 2: Barbados
Simon meets the owner of a traditional wooden house in Barbados who has turned down millions of dollars from luxury property developers, then encounters marijuana growers on the volcanic island of St Vincent hoping that the drug will soon be decriminalised. On the South American mainland, Simon examines the mismanagement of Venezuela's natural resources, before crossing into Colombia, where he spends time with the Kogi - an indigenous people who have maintained their traditional forest lifestyle.

Part 3: Nicaragua
Simon begins the last leg of his journey in Nicaragua and visits the Rama-Kriol people, who face losing their ancestral homes due to the construction of a new transoceanic waterway. Simon then discovers Hondurans living in the grip of some of the most violent criminal gangs in the world, with San Pedro Sula having the highest murder rate of any city on the planet. His journey ends in Jamaica, where he spends time with young people who have rejected gang life, offering a model of hope for future generations.

General
Complete name : BBC.Caribbean.with.Simon.Reeve.1of3.Hispaniola.mp4
Format
: MPEG-4
Format profile : Base Media
Codec ID
: isom
File size
: 1.31 GiB
Duration
: 59mn 1s
Overall bit rate mode : Variable
Overall bit rate : 3 184 Kbps

Video
ID : 1
Format
: AVC
Format/Info
: Advanced Video Codec
Format profile : [email protected]
Format settings, CABAC : No
Format settings, ReFrames : 1 frame
Format settings, GOP : M=1, N=12
Codec ID
: avc1
Codec ID/Info : Advanced Video Coding
Duration
: 59mn 1s
Bit rate
: 3 021 Kbps
Maximum bit rate : 13.0 Mbps
Width
: 1 280 pixels
Height
: 720 pixels
Display aspect ratio : 16:9
Frame rate mode : Constant
Frame rate
: 25.000 fps
Color space
: YUV
Chroma subsampling

: 4:2:0
Bit depth
: 8 bits
Scan type
: Progressive
Bits/(Pixel*Frame)

: 0.131
Stream size
: 1.25 GiB (95%)

Audio
ID : 2
Format
: AAC
Format/Info
: Advanced Audio Codec
Format profile : LC
Codec ID
: 40
Duration
: 59mn 1s
Bit rate mode : Variable
Bit rate
: 160 Kbps
Maximum bit rate : 219 Kbps
Channel(s)
: 2 channels
Channel positions: Front: L R
Sampling rate : 48.0 KHz
Compression mode : Lossy
Stream size
: 67.5 MiB (5%)
Language
: English
Encoded date : UTC 2015-04-06 13:54:32
Tagged date
: UTC 2015-04-06 13:55:23

Text
ID : 3
Format
: Timed text
Codec ID
: tx3g
Duration
: 58mn 36s
Bit rate mode : Variable
Bit rate
: 93 bps
Stream size
: 39.8 KiB (0%)
Encoded date : UTC 2015-04-06 13:55:23
Tagged date
: UTC 2015-04-06 13:55:23

Screenshots:

http://i57.fastpic.ru/big/2015/0408/80/96b3aea3dba411d7afd3a25e41ac1f80.jpg

http://i68.fastpic.ru/big/2015/0408/4f/59f47065af4903eb7b5d635339e7354f.jpg

http://i65.fastpic.ru/big/2015/0408/e6/6b1b0e8fd22a0123927e63d1a139cee6.jpg

http://i57.fastpic.ru/big/2015/0408/b6/b7a754e3de1e6cfc2d66dab856ce56b6.jpg


DOWNLOAD LINKS:
Buy Premium To Support Me & Get Resumable Support & Max Speed


Links are Interchangeable - No Password - Single Extraction

 
 
 
Dear visitor, you went to the site as an unregistered user. We encourage you to register or enter the site under your name.
 
   
 
 (Votes #: 0)