2013Zone For Latest Downloads

 
     
 
Legal Downloads » TV Shows » Starz Films - Sex and the Cinema (2009)
Menu
Home Applications
Games Movies
Music TV Shows
Torrents Graphics

Sitemap

RSS
 
Advanced Search
Last News
Site Info
Top Contributors:
  1    supper88 32766
  2    admin 32671
  3    Whisky 10080
  4    Shark_ 8911
  5    creativelivenew 8706
  6    whathesupa 2799
  7    candymypost 840
  8    hvnteam 629
  9    vuong87 3


Articles:
  This Hour: 0
  Today: 0
  This Month: 40
  All Time: 515636


Torrents:
  Today: 0
  Yesterday: 0
  All Time: 156702


Membership:
  Registered Today :0
  This Hour:0
  This Month:0
  Total:14
  Banned:1

{online}
{inform_torrent}
Friend:
We Recomend
Trend
Trend

Search In Site

TV Shows : Starz Films - Sex and the Cinema (2009)
 

http://i58.fastpic.ru/big/2015/0408/30/01a224a4081314c0a44d07f89e370d30.jpg
Starz Films - Sex and the Cinema (2009)
HDTV | 1280x720 | .MP4/AVC @ 3012 Kbps | 51mn 50s | Audio: English AAC 160 kbps, 2 channels | Subs: None | 1.15 GiB
Genre: Documentary

"Sex and the Cinema is a steamy trip through the looking glass of the camera lens, depicting how sexually charged films reflect our own sexual liberation. It will unzip our obsession with sex, both from a cinematic and social perspective, exposing the hypocrisy inherent in our culture's war against eroticism (be it film, art, literature or song lyrics).This special will look at many films that push the boundary, from mainstream studio films to product that in its time has been considered pornographic."

General
Complete name : Sex.And.The.Cinema.mp4
Format
: MPEG-4
Format profile : Base Media
Codec ID
: isom
File size
: 1.15 GiB
Duration
: 51mn 50s
Overall bit rate mode : Variable
Overall bit rate : 3 176 Kbps

Video
ID : 1
Format
: AVC
Format/Info
: Advanced Video Codec
Format profile : [email protected]
Format settings, CABAC : No
Format settings, ReFrames : 1 frame
Format settings, GOP : M=1, N=12
Codec ID
: avc1
Codec ID/Info : Advanced Video Coding
Duration
: 51mn 50s
Bit rate
: 3 012 Kbps
Width
: 1 280 pixels
Height
: 720 pixels
Display aspect ratio : 16:9
Frame rate mode : Constant
Frame rate
: 25.000 fps
Color space
: YUV
Chroma subsampling

: 4:2:0
Bit depth
: 8 bits
Scan type
: Progressive
Bits/(Pixel*Frame)

: 0.131
Stream size
: 1.09 GiB (95%)
Language
: English
Encoded date : UTC 2015-04-06 16:42:03
Tagged date
: UTC 2015-04-06 16:42:03

Audio
ID : 2
Format
: AAC
Format/Info
: Advanced Audio Codec
Format profile : LC
Codec ID
: 40
Duration
: 51mn 50s
Bit rate mode : Variable
Bit rate
: 160 Kbps
Channel(s)
: 2 channels
Channel positions: Front: L R
Sampling rate : 48.0 KHz
Compression mode : Lossy
Stream size
: 59.3 MiB (5%)
Encoded date : UTC 2015-04-06 16:42:03
Tagged date
: UTC 2015-04-06 16:42:03

Screenshots:

http://i66.fastpic.ru/big/2015/0408/45/57248ca25ecf86aa2157f8b179fb2845.jpg

http://i67.fastpic.ru/big/2015/0408/47/6249d072ed9300bcdd7c1b88ae103647.jpg

http://i59.fastpic.ru/big/2015/0408/2a/a2cd58c9d80b5dca2e188d0bb6fd082a.jpg

http://i60.fastpic.ru/big/2015/0408/75/99d535cc2496de0eeee1a2ad70321575.jpg


DOWNLOAD LINKS:
Buy Premium To Support Me & Get Resumable Support & Max Speed


Links are Interchangeable - No Password - Single Extraction

 
 
 
Dear visitor, you went to the site as an unregistered user. We encourage you to register or enter the site under your name.
 
   
 
 (Votes #: 0)