2013Zone For Latest Downloads

 
     
 
Legal Downloads » TV Shows » PBS - Cancer: The Emperor of All Maladies (2015)
Menu
Home Applications
Games Movies
Music TV Shows
Torrents Graphics

Sitemap

RSS
 
Advanced Search
Last News
Site Info
Top Contributors:
  1    supper88 32766
  2    admin 32671
  3    Whisky 10080
  4    Shark_ 8911
  5    creativelivenew 8706
  6    whathesupa 2799
  7    candymypost 840
  8    hvnteam 629
  9    vuong87 3


Articles:
  This Hour: 0
  Today: 0
  This Month: 40
  All Time: 515636


Torrents:
  Today: 0
  Yesterday: 0
  All Time: 156702


Membership:
  Registered Today :0
  This Hour:0
  This Month:0
  Total:14
  Banned:1

{online}
{inform_torrent}
Friend:
We Recomend
Trend
Trend

Search In Site

TV Shows : PBS - Cancer: The Emperor of All Maladies (2015)
 
http://i67.fastpic.ru/big/2015/0408/c0/0f9fd7e56967e769ac45760d09a872c0.jpg

PBS - Cancer: The Emperor of All Maladies (2015)
HDTV | 1280x720 | MKV/x264 @ 1728 Kbps | 3x113mn | Audio: English AC3 384 kbps, 2 channels | Subs: English | 3x1.71 GB
Genre: Documentary

Based on the Pulitzer Prize-winning book by Siddhartha Mukherjee, this film tells the story of cancer, from its first description in an ancient Egyptian scroll to the gleaming laboratories of modern research institutions. It interweaves a sweeping historical narrative; with intimate stories about contemporary patients; and an investigation into the latest scientific breakthroughs that may have brought us to the brink of lasting cures.
Part 1: Magic Bullets
The search for a "cure" for cancer is the greatest epic in the history of science. It spans centuries and continents and is full of its share of heroes, villains, and sudden vertiginous twists. This episode follows that centuries-long search, but centers on the story of Sidney Farber, who, defying conventional wisdom in the late 1940s, introduces the modern era of chemotherapy, eventually galvanizing a full-scale national "war on cancer." Interwoven with Farber's narrative is the contemporary story of little Olivia Blair, who at 14-months old is diagnosed with T-cell acute lymphoblastic leukemia, which spreads to her brain and spinal column. The film follows her as she and her parents struggle with the many hardships and decisions foisted upon a cancer patient. She remains in full remission a year after her diagnosis, but is still on her journey to finish her three-year treatment plan.

Part 2: The Blind Men and the Elephant
This episode picks up the story in the wake of the declaration of a "war on cancer" by Richard Nixon in 1971. Flush with optimism and awash with federal dollars, the cancer field plunges forward in search of a cure. In the lab, rapid progress is made in understanding the essential nature of the cancer cell, leading to the revolutionary discovery of the genetic basis of cancer. But at the bedside, where patients are treated, few new therapies become available, and a sense of disillusionment takes hold, leading some patients and doctors to take desperate measures. It is not until the late 1990s that the advances in research begin to translate into more precise targeted therapies with the breakthrough drugs Gleevec and Herceptin. Following the history during these fraught decades, the film intertwines the contemporary story of Dr. Lori Wilson, a surgical oncologist who is diagnosed with invasive breast cancer in both breasts in 2013. Her emotional and physical struggles with the disease provide a bracing counterpoint to the historical narrative.

Part 3: Finding the Achilles Heel
This episode picks up the story at another moment of buoyant optimism in the cancer world: Scientists believe they have cracked the essential mystery of the malignant cell and the first targeted therapies have been developed, with the promise of many more to follow. But very quickly cancer reveals new layers of complexity and a formidable array of unforeseen defenses. In the disappointment that follows, many call for a new focus on prevention and early detection as the most promising fronts in the war on cancer. But other scientists are undeterred, and by the second decade of the 2000s their work pays off. The bewildering complexity of the cancer cell, so recently considered unassailable, yields to a more ordered picture, revealing new vulnerabilities and avenues of attack. Perhaps most exciting of all is the prospect of harnessing the human immune system to defeat cancer. This episode includes patients Doug Rogers, a 60-year-old NASCAR mechanic with melanoma, and Emily Whitehead, a six-year-old child afflicted with leukemia. Each is a pioneer in new immunotherapy treatments, which the documentary follows as their stories unfold. Both see their advanced cancers recede and are able to resume normal lives.

Video
ID
: 1
Format : AVC
Format/Info

: Advanced Video Codec
Format profile : [email protected]
Format settings, CABAC : Yes
Format settings, ReFrames : 8 frames
Format settings, GOP : M=1, N=2
Codec ID : V_MPEG4/ISO/AVC
Duration : 1h 53mn
Bit rate : 1 728 Kbps
Width : 1 280 pixels
Height : 720 pixels
Display aspect ratio : 16:9
Frame rate

: 23.976 fps
Color space

: YUV
Chroma subsampling : 4:2:0
Bit depth: 8 bits
Scan type: Progressive
Bits/(Pixel*Frame) : 0.078
Stream size

: 1.37 GiB (80%)
Writing library : x264 core 146 r2538 121396c
Encoding settings : cabac=1 / ref=8 / deblock=1:0:0 / analyse=0x3:0x133 / me=umh / subme=9 / psy=1 / psy_rd=1.00:0.00 / mixed_ref=1 / me_range=16 / chroma_me=1 / trellis=2 / 8x8dct=1 / cqm=0 / deadzone=21,11 / fast_pskip=1 / chroma_qp_offset=-2 / threads=12 / lookahead_threads=1 / sliced_threads=0 / nr=0 / decimate=1 / interlaced=0 / bluray_compat=0 / constrained_intra=0 / bframes=3 / b_pyramid=2 / b_adapt=2 / b_bias=0 / direct=3 / weightb=1 / open_gop=0 / weightp=2 / keyint=250 / keyint_min=25 / scenecut=40 / intra_refresh=0 / rc_lookahead=60 / rc=crf / mbtree=1 / crf=20.0 / qcomp=0.60 / qpmin=0 / qpmax=69 / qpstep=4 / ip_ratio=1.40 / aq=1:1.00
Language : English

Audio
ID
: 2
Format : AC-3
Format/Info

: Audio Coding 3
Mode extension : CM (complete main)
Codec ID : A_AC3
Duration : 1h 53mn
Bit rate mode : Constant
Bit rate : 384 Kbps
Channel(s)

: 2 channels
Channel positions : Front: L R
Sampling rate : 48.0 KHz
Bit depth: 16 bits
Compression mode : Lossy
Stream size

: 313 MiB (18%)
Language : English

Text
ID
: 3
Format : UTF-8
Codec ID : S_TEXT/UTF8
Codec ID/Info : UTF-8 Plain Text
Language : English

http://i57.fastpic.ru/big/2015/0408/96/423b84929fa1e200b2ef2edb948f9096.jpg


DOWNLOAD LINKS:
Buy Premium To Support Me & Get Resumable Support & Max Speed


Links are Interchangeable - No Password - Single Extraction

 
 
 
Dear visitor, you went to the site as an unregistered user. We encourage you to register or enter the site under your name.
 
   
 
 (Votes #: 0)