2013Zone For Latest Downloads

 
     
 
Legal Downloads » Music » The Aristocrats - Secret Show: Live In Osaka (2015) [2CD] {BOING! Music}
Menu
Home Applications
Games Movies
Music TV Shows
Torrents Graphics

Sitemap

RSS
 
Advanced Search
Last News
Site Info
Top Contributors:
  1    supper88 32766
  2    admin 32671
  3    Whisky 10080
  4    Shark_ 8911
  5    creativelivenew 8706
  6    whathesupa 2799
  7    candymypost 840
  8    hvnteam 629
  9    vuong87 3


Articles:
  This Hour: 0
  Today: 0
  This Month: 20
  All Time: 515636


Torrents:
  Today: 0
  Yesterday: 0
  All Time: 156702


Membership:
  Registered Today :0
  This Hour:0
  This Month:0
  Total:14
  Banned:1

{online}
{inform_torrent}
Friend:
We Recomend
Trend
Trend

Search In Site

Music : The Aristocrats - Secret Show: Live In Osaka (2015) [2CD] {BOING! Music}
 

http://i67.fastpic.ru/big/2015/0408/8c/c18c04cb361ee2e308226360d35f008c.jpg
The Aristocrats - Secret Show: Live In Osaka (2015) [2CD] {BOING! Music}
EAC rip (secure mode) | FLAC (tracks)+CUE+LOG -> 622 Mb | MP3 @320 -> 287 Mb
© 2015 BOING! Music | BH-00007
Rock / Prog Rock / Fusion / Alternative Rock

"The Aristocrats' 2014 world tour brought Guthrie Govan, Bryan Beller and Marco Minnemann to Japan where they performed at the 'Big Cat' club in Osaka. The show got recorded by Takashi Ogawa without the band's knowledge. When they heard the recording afterwards, they were impressed enough to release it as a double cd set. The recording does indeed sound excellent, and the show was great. An excellent decision to release it on album."

Personnel:
Guthrie Govan - guitar
Bryan Beller - bass
Marco Minnemann - drums

tracklist:
CD 1

01. Introduction
02. Furtive Jack
03. Sweaty Knockers
04. Ohhhh Noooo
05. Get It Like That
06. Culture Clash

CD 2
01. Flatlands
02. Parental Advisory (Pronounced "Blues Fuckers")
03. Gaping Head Wound
04. Twister (Pronounced "Desert Tornado")
05. Washed Passport (Pronounced "Living The Dream")
06. Erotic Cakes

Exact Audio Copy V1.0 beta 3 from 29. August 2011

EAC extraction logfile from 8. February 2015, 17:13

The Aristocrats / Secret Show: Live In Osaka (Disc One)

Used drive : ASUS DRW-1814BLT Adapter: 0 ID: 0

Read mode : Secure
Utilize accurate stream : Yes
Defeat audio cache : Yes
Make use of C2 pointers : No

Read offset correction

: 6
Overread into Lead-In and Lead-Out : No
Fill up missing offset samples with silence : Yes
Delete leading and trailing silent blocks : No
Null samples used in CRC calculations : Yes
Used interface
: Native Win32 interface for Win NT & 2000
Gap handling
: Appended to previous track

Used output format : User Defined Encoder
Selected bitrate : 768 kBit/s
Quality : High
Add ID3 tag : No
Command line compressor : C:\Program Files (x86)\Exact Audio Copy\Flac\flac.exe
Additional command line options : -8 -V -T "ARTIST=%artist%" -T "TITLE=%title%" -T "ALBUM=%albumtitle%" -T "DATE=%year%" -T "TRACKNUMBER=%tracknr%" -T "TOTALTRACKS=%numtracks%" -T "GENRE=%genre%" -T "ALBUMARTIST=%albumartist%" -T "ALBUM ARTIST=%albumartist%" -T "COMMENT=EAC Secure Mode, Test & Copy, AccurateRip, FLAC -8" %source%

TOC of the extracted CD Track | Start | Length | Start sector | End sector
-----------1 | 0:00.00 | 1:02.73 | 0 | 4722 2 | 1:02.73 | 9:25.67 | 4723 | 47164 3 | 10:28.65 | 12:02.46 | 47165 | 101360 4 | 22:31.36 | 8:05.23 | 101361 | 137758 5 | 30:36.59 | 14:28.36 | 137759 | 202894 6 | 45:05.20 | 8:59.42 | 202895 | 243361

Track 1 Filename E:\Rips\The Aristocrats - Secret Show - Live In Osaka (2014) [FLAC]\Disc 1of2\01 - Introduction.wav Pre-gap length 0:00:02.00 Peak level 46.2 %
Extraction speed 3.4 X
Track quality 100.0 %
Test CRC 1CB75BD9
Copy CRC 1CB75BD9
Track not present in AccurateRip database
Copy OK

Track 2 Filename E:\Rips\The Aristocrats - Secret Show - Live In Osaka (2014) [FLAC]\Disc 1of2\02 - Furtive Jack.wav Peak level 89.0 %
Extraction speed 5.9 X
Track quality 100.0 %
Test CRC 10CEC208
Copy CRC 10CEC208
Track not present in AccurateRip database
Copy OK

Track 3 Filename E:\Rips\The Aristocrats - Secret Show - Live In Osaka (2014) [FLAC]\Disc 1of2\03 - Sweaty Knockers.wav Peak level 89.0 %
Extraction speed 7.3 X
Track quality 100.0 %
Test CRC 4705E903
Copy CRC 4705E903
Track not present in AccurateRip database
Copy OK

Track 4 Filename E:\Rips\The Aristocrats - Secret Show - Live In Osaka (2014) [FLAC]\Disc 1of2\04 - Ohhhh Noooo.wav Peak level 89.0 %
Extraction speed 8.1 X
Track quality 100.0 %
Test CRC 2B46C04E
Copy CRC 2B46C04E
Track not present in AccurateRip database
Copy OK

Track 5 Filename E:\Rips\The Aristocrats - Secret Show - Live In Osaka (2014) [FLAC]\Disc 1of2\05 - Get It Like That.wav Peak level 89.0 %
Extraction speed 3.2 X
Track quality 99.9 %
Test CRC 9F36893D
Copy CRC 9F36893D
Track not present in AccurateRip database
Copy OK

Track 6 Filename E:\Rips\The Aristocrats - Secret Show - Live In Osaka (2014) [FLAC]\Disc 1of2\06 - Culture Clash.wav Peak level 89.0 %
Extraction speed 10.0 X
Track quality 100.0 %
Test CRC 49A1D680
Copy CRC 49A1D680
Track not present in AccurateRip database
Copy OK

None of the tracks are present in the AccurateRip database

No errors occurred

End of status report

==== Log checksum 646C172D2F1AAAF07F38B2C55F338AA2D4462A20D8A3BFAAF38986D634CE176E ====

Exact Audio Copy V1.0 beta 3 from 29. August 2011

EAC extraction logfile from 8. February 2015, 15:38

The Aristocrats / Secret Show: Live In Osaka (Disc Two)

Used drive : ASUS DRW-1814BLT Adapter: 0 ID: 0

Read mode : Secure
Utilize accurate stream : Yes
Defeat audio cache : Yes
Make use of C2 pointers : No

Read offset correction

: 6
Overread into Lead-In and Lead-Out : No
Fill up missing offset samples with silence : Yes
Delete leading and trailing silent blocks : No
Null samples used in CRC calculations : Yes
Used interface
: Native Win32 interface for Win NT & 2000
Gap handling
: Appended to previous track

Used output format : User Defined Encoder
Selected bitrate : 768 kBit/s
Quality : High
Add ID3 tag : No
Command line compressor : C:\Program Files (x86)\Exact Audio Copy\Flac\flac.exe
Additional command line options : -8 -V -T "ARTIST=%artist%" -T "TITLE=%title%" -T "ALBUM=%albumtitle%" -T "DATE=%year%" -T "TRACKNUMBER=%tracknr%" -T "TOTALTRACKS=%numtracks%" -T "GENRE=%genre%" -T "ALBUMARTIST=%albumartist%" -T "ALBUM ARTIST=%albumartist%" -T "COMMENT=EAC Secure Mode, Test & Copy, AccurateRip, FLAC -8" %source%

TOC of the extracted CD Track | Start | Length | Start sector | End sector
-----------1 | 0:00.00 | 10:00.06 | 0 | 45005 2 | 10:00.06 | 17:13.30 | 45006 | 122510 3 | 27:13.36 | 9:48.21 | 122511 | 166631 4 | 37:01.57 | 8:02.68 | 166632 | 202849 5 | 45:04.50 | 12:24.15 | 202850 | 258664 6 | 57:28.65 | 7:50.50 | 258665 | 293964

Track 1 Filename E:\Rips\The Aristocrats - Secret Show - Live In Osaka (2014) [FLAC]\Disc 2of2\01 - Flatlands.wav Pre-gap length 0:00:02.00 Peak level 89.0 %
Extraction speed 3.0 X
Track quality 100.0 %
Test CRC 82AEDFF4
Copy CRC 82AEDFF4
Track not present in AccurateRip database
Copy OK

Track 2 Filename E:\Rips\The Aristocrats - Secret Show - Live In Osaka (2014) [FLAC]\Disc 2of2\02 - Blues Fuckers.wav Peak level 89.0 %
Extraction speed 4.0 X
Track quality 100.0 %
Test CRC 6B843FE8
Copy CRC 6B843FE8
Track not present in AccurateRip database
Copy OK

Track 3 Filename E:\Rips\The Aristocrats - Secret Show - Live In Osaka (2014) [FLAC]\Disc 2of2\03 - Gaping Head Wound.wav Peak level 89.0 %
Extraction speed 2.9 X
Track quality 99.9 %
Test CRC B66C7752
Copy CRC B66C7752
Track not present in AccurateRip database
Copy OK

Track 4 Filename E:\Rips\The Aristocrats - Secret Show - Live In Osaka (2014) [FLAC]\Disc 2of2\04 - Desert Tornado.wav Peak level 89.0 %
Extraction speed 5.0 X
Track quality 100.0 %
Test CRC EF531BF2
Copy CRC EF531BF2
Track not present in AccurateRip database
Copy OK

Track 5 Filename E:\Rips\The Aristocrats - Secret Show - Live In Osaka (2014) [FLAC]\Disc 2of2\05 - Living The Dream.wav Peak level 89.0 %
Extraction speed 5.5 X
Track quality 100.0 %
Test CRC 62874E99
Copy CRC 62874E99
Track not present in AccurateRip database
Copy OK

Track 6 Filename E:\Rips\The Aristocrats - Secret Show - Live In Osaka (2014) [FLAC]\Disc 2of2\06 - Erotic Cakes.wav Peak level 89.0 %
Extraction speed 5.7 X
Track quality 100.0 %
Test CRC CB63B758
Copy CRC CB63B758
Track not present in AccurateRip database
Copy OK

None of the tracks are present in the AccurateRip database

No errors occurred

End of status report

==== Log checksum EC880C24C89591A05EF4E4A1EE42999D2E8E76C3AE2FA7054E68CFF6149F9835 ====

http://i68.fastpic.ru/big/2015/0408/de/a4ccba3bb5e90d1b9967c9a5fa5c72de.jpg


All thanks goes to the original releaser!
DOWNLOAD LINKS:
Buy Premium To Support Me & Get Resumable Support & Max Speed


Links are Interchangeable - No Password - Single Extraction

 
 
 
Dear visitor, you went to the site as an unregistered user. We encourage you to register or enter the site under your name.
 
   
 
 (Votes #: 0)