2013Zone For Latest Downloads

 
     
 
Legal Downloads » Music » Lalo Schifrin ‎- No One Home (1979) [2014 Remaster]
Menu
Home Applications
Games Movies
Music TV Shows
Torrents Graphics

Sitemap

RSS
 
Advanced Search
Last News
Site Info
Top Contributors:
  1    supper88 32766
  2    admin 32693
  3    Whisky 10080
  4    Shark_ 8911
  5    creativelivenew 8706
  6    whathesupa 2799
  7    candymypost 840
  8    hvnteam 629
  9    vuong87 3


Articles:
  This Hour: 0
  Today: 0
  This Month: 62
  All Time: 515562


Torrents:
  Today: 0
  Yesterday: 0
  All Time: 156685


Membership:
  Registered Today :0
  This Hour:0
  This Month:0
  Total:14
  Banned:1

{online}
{inform_torrent}
Friend:
We Recomend
Trend
Trend
XsAd

Search In Site

Music : Lalo Schifrin ‎- No One Home (1979) [2014 Remaster]
 
http://i57.fastpic.ru/big/2015/0425/12/7b0533a9f1e1dbb0c2f37b9a32e75812.jpg

Lalo Schifrin ‎- No One Home (1979) [2014 Remaster]
EAC Rip | FLAC (Tracks) +CUE, LOG | 450 MB | Covers Included
Soul / R&B | Label: Tabu / Demon | Catalog Number: TABU-1036

"It's never been easy to pigeonhole Lalo Schifrin. The four-time Grammy-winning Argentinian composer created one of the most memorable television themes of all time with his "Mission: Impossible," recorded jazz albums for labels including Verve and Creed Taylor's CTI, worked with Count Basie, Cannonball Adderley and Sarah Vaughan, and scored innumerable films, racking up six Oscar nominations in the process. Now, Demon Music Group has reissued two lost gems of the Schifrin oeuvre, both originally recorded for Clarence Avant's Tabu label, for the first time on CD. Gypsies (1978) and No One Home (1979) have recently arrived in deluxe, casebound expanded editions as part of Demon's long-running Tabu series."

As was the case with "No One Home," the R&B-flavored "Enchanted Flame" was carried over from the Sandy Graham sessions and re-recorded with vocalist Sylvia Smith. Sylvia has another showcase on "You Feel Good," co-written (like "No One Home") with Gale Garnett of "We'll Sing in the Sunshine" fame. Ian Underwood anchors the song with his burbling synth part; other musicians on No One Home include the returning Paulinho da Costa and Oscar Brashear, plus Wah Wah Watson, Paul Jackson, Johnny Graham and Tim May on guitars, Byron Miller and Ed Watkins on bass, Jerome Richardson and Kim Richmond on woodwinds, Leon "Ndugu" Chancler and Alex Acuna on drums, and Ronnie Foster, Patrice Rushen and Lalo on keyboards.

The emotional high point of No One Home may well be "Memory of Love." Featuring Sandy Graham's lone remaining lead vocal, a second lead from Virginia Ayers and an exquisite piano solo from Patrice Rushen, the softly rhythmic, beguiling ballad is further notable for its lyrics penned by Dr. Maya Angelou. (In 1979, Schifrin and Angelou would co-write an off-Broadway musical, And Still I Rise.)

Despite its R&B feel and high caliber of material, No One Home only mustered a chart appearance on the Jazz survey, reaching No. 39. Like Gypsies, it's ripe for rediscovery today. This expanded edition, featuring another superb essay from A. Scott Galloway and remastering by Phil Kinrade, adds both the single edit and an instrumental version of "No One Home."

Both Gypsies and No One Home - testaments to the enduring talent of the great Lalo Schifrin and true snapshots of a particular place and time - are available now from Demon Music Group and Tabu Records!"

Exact Audio Copy V1.0 beta 3 from 29. August 2011

EAC extraction logfile from 17. April 2015, 17:57

Lalo Schifrin / No One Home

Used drive : GENERIC CDRCB05 Adapter: 4 ID: 0

Read mode : Secure
Utilize accurate stream : Yes
Defeat audio cache : Yes
Make use of C2 pointers : No

Read offset correction

: 102
Overread into Lead-In and Lead-Out : No
Fill up missing offset samples with silence : Yes
Delete leading and trailing silent blocks : No
Null samples used in CRC calculations : Yes
Used interface
: Native Win32 interface for Win NT & 2000
Gap handling
: Appended to previous track

Used output format : User Defined Encoder
Selected bitrate : 1024 kBit/s
Quality : High
Add ID3 tag : No
Command line compressor : C:\Program Files\FLAC\flac.exe
Additional command line options : -8 -V -T "ARTIST=%artist%" -T "TITLE=%title%" -T "ALBUM=%albumtitle%" -T "DATE=%year%" -T "TRACKNUMBER=%tracknr%" -T "GENRE=%genre%" -T "PERFORMER=%albuminterpret%" -T "COMPOSER=%composer%" %haslyrics%--tag-from-file=LYRICS="%lyricsfile%"%haslyrics% -T "ALBUMARTIST=%albumartist%" -T "DISCNUMBER=%cdnumber%" -T "TOTALDISCS=%totalcds%" -T "TOTALTRACKS=%numtracks%" -T "COMMENT=%comment%" %source% -o %dest%

TOC of the extracted CD Track | Start | Length | Start sector | End sector
1 | 0:00.00 | 6:50.15 | 0 | 30764 2 | 6:50.15 | 4:34.72 | 30765 | 51386 3 | 11:25.12 | 5:18.27 | 51387 | 75263 4 | 16:43.39 | 7:15.13 | 75264 | 107901 5 | 23:58.52 | 4:42.01 | 107902 | 129052 6 | 28:40.53 | 4:03.52 | 129053 | 147329 7 | 32:44.30 | 10:35.47 | 147330 | 195001 8 | 43:20.02 | 4:28.20 | 195002 | 215121

Track 1 Filename H:\0\..................00\post\Lalo Schifrin ‎- No One Home (1979) [2014 Remaster]\01 - Non One Home.wav Pre-gap length 0:00:02.00 Peak level 99.4 %
Extraction speed 1.6 X
Track quality 100.0 %
Test CRC 50E6FB79
Copy CRC 50E6FB79
Track not present in AccurateRip database
Copy OK

Track 2 Filename H:\0\..................00\post\Lalo Schifrin ‎- No One Home (1979) [2014 Remaster]\02 - Oh Darlin' ... Life Goes On.wav Pre-gap length 0:00:01.44 Peak level 99.4 %
Extraction speed 1.8 X
Track quality 100.0 %
Test CRC 5E13F3E0
Copy CRC 5E13F3E0
Track not present in AccurateRip database
Copy OK

Track 3 Filename H:\0\..................00\post\Lalo Schifrin ‎- No One Home (1979) [2014 Remaster]\03 - Enchanted Flame.wav Pre-gap length 0:00:01.57 Peak level 99.4 %
Extraction speed 1.8 X
Track quality 99.9 %
Test CRC E1E2DC74
Copy CRC E1E2DC74
Track not present in AccurateRip database
Copy OK

Track 4 Filename H:\0\..................00\post\Lalo Schifrin ‎- No One Home (1979) [2014 Remaster]\04 - You Feel Good.wav Pre-gap length 0:00:01.09 Peak level 99.4 %
Extraction speed 2.2 X
Track quality 100.0 %
Test CRC 38A7E3F5
Copy CRC 38A7E3F5
Track not present in AccurateRip database
Copy OK

Track 5 Filename H:\0\..................00\post\Lalo Schifrin ‎- No One Home (1979) [2014 Remaster]\05 - Memory Of Love.wav Pre-gap length 0:00:01.50 Peak level 85.9 %
Extraction speed 2.3 X
Track quality 100.0 %
Test CRC 884C502A
Copy CRC 884C502A
Track not present in AccurateRip database
Copy OK

Track 6 Filename H:\0\..................00\post\Lalo Schifrin ‎- No One Home (1979) [2014 Remaster]\06 - Middle Of The Night.wav Pre-gap length 0:00:01.49 Peak level 83.6 %
Extraction speed 2.1 X
Track quality 99.9 %
Test CRC A401B2B2
Copy CRC A401B2B2
Track not present in AccurateRip database
Copy OK

Track 7 Filename H:\0\..................00\post\Lalo Schifrin ‎- No One Home (1979) [2014 Remaster]\07 - No One Home (Edit).wav Pre-gap length 0:00:01.72 Peak level 99.4 %
Extraction speed 2.8 X
Track quality 100.0 %
Test CRC 90A861AA
Copy CRC 90A861AA
Track not present in AccurateRip database
Copy OK

Track 8 Filename H:\0\..................00\post\Lalo Schifrin ‎- No One Home (1979) [2014 Remaster]\08 - No One Home (Instrumental).wav Pre-gap length 0:00:01.61 Peak level 99.4 %
Extraction speed 2.4 X
Track quality 99.9 %
Test CRC 78174731
Copy CRC 78174731
Track not present in AccurateRip database
Copy OK

None of the tracks are present in the AccurateRip database

No errors occurred

End of status report

==== Log checksum 5935B7F2B59AC3E683059354FDF2C4E93A2941300F88A65D2A95FD799182D9C8 ====

Tracklist:
Lalo Schifrin, No One Home (Tabu LP 36091, 1979 - reissued TABU 1036, 2014)
1. No One Home
2. Oh Darlin'...Life Goes On
3. Enchanted Flame
4. You Feel Good
5. Memory of Love
6. Middle of the Night
7. No One Home (Edit) (Tabu single ZS9 5519, 1979)
8. No One Home (Instrumental) (Tabu single 4Z8-5520, 1979)
DOWNLOAD LINKS:
Buy Premium To Support Me & Get Resumable Support & Max Speed


Links are Interchangeable - No Password - Single Extraction

Lalo Schifrin ‎- No One Home (1979) [2014 Remaster] Fast Download


XsAd2

 
 
 
Dear visitor, you went to the site as an unregistered user. We encourage you to register or enter the site under your name.
 
   
 
 (Votes #: 0)