2013Zone For Latest Downloads

 
     
 
Legal Downloads » Music » The Guess Who - Anthology (2003) 2CD
Menu
Home Applications
Games Movies
Music TV Shows
Torrents Graphics

Sitemap

RSS
 
Advanced Search
Last News
Site Info
Top Contributors:
  1    supper88 32766
  2    admin 32693
  3    Whisky 10080
  4    Shark_ 8911
  5    creativelivenew 8706
  6    whathesupa 2799
  7    candymypost 840
  8    hvnteam 629
  9    vuong87 3


Articles:
  This Hour: 0
  Today: 0
  This Month: 62
  All Time: 515562


Torrents:
  Today: 0
  Yesterday: 0
  All Time: 156685


Membership:
  Registered Today :0
  This Hour:0
  This Month:0
  Total:14
  Banned:1

{online}
{inform_torrent}
Friend:
We Recomend
Trend
Trend
Ad1

Search In Site

Music : The Guess Who - Anthology (2003) 2CD
 
http://i58.fastpic.ru/big/2015/0425/a5/8a6fe7688c5ca0f8ee06ea093ea846a5.jpg

The Guess Who - Anthology (2003) 2CD
EAC | FLAC | Image (Cue&Log) ~ 1000 Mb (incl 5%) | Mp3 (CBR320) ~ 406 Mb (incl 5%) | Scans included
Genre: Classic Rock, Psychedelic Rock, Hard Rock, Blues Rock | Label: RCA/BMG HERITAGE | # 82876 54850 2 | Time: 02:28:36

"This double set replaces both previously released RCA multi-disc overviews of Guess Who hits. As of its appearance in late 2003, both the flawed triple-CD 56-track The Ultimate Collection and 1988's excellent Track Record compilations were out of print. This release tries, and generally succeeds, as a comprehensive overview of the band's glory years. In fact, it's the only one to kick off with two pre-Burton Cummings nuggets: 1964's "Shakin' All Over" and a rare 1966 garage rocking psychedelic single, "It's My Pride." Collectors will also appreciate an early 1968 version of "When Friends Fall Out," a song re-recorded three years later for the American Woman album. From there on, this is a sturdy if unremarkable collection of fairly obvious selections, some of them, such as "Heartbroken Bopper," "Glamour Boy," and "Hang On to Your Life," reproduced in difficult to find single mixes."



Tracklist:

CD1:

01. Shakin' All Over (02:41)
02. It's My Pride (02:45)
03. When Friends Fall Out (Single Version) (03:14)
04. These Eyes (03:45)
05. A Wednesday In Your Garden (03:22)
06. Laughing (02:42)
07. 6 A.M. Or Nearer (05:00)
08. Undun (03:25)
09. No Time (03:48)
10. New Mother Nature (04:54)
11. American Woman (05:09)
12. The Answer (04:05)
13. Hand Me Down World (03:28)
14. Bus Rider (02:57)
15. Share The Land (03:55)
16. Hang On To Your Life (Single Version) (03:22)
17. Do You Miss Me Darlin' (03:57)
18. Albert Flasher (02:27)
19. Broken (03:08)
20. Pain Train (03:44)
21. Sour Suite (05:18)

CD2:

01. Rain Dance (02:46)
02. Heartbroken Bopper (Single Version) (03:12)
03. Smoke Big Factory (04:00)
04. Guns, Guns, Guns (05:02)
05. Runnin' Back To Saskatoon (Single Version) (03:35)
06. Follow Your Daughter Home (03:41)
07. Samantha's Living Room (03:27)
08. Orly (02:57)
09. Those Show Biz Shoes (06:49)
10. Glamour Boy (Single Version) (03:48)
11. Cardboard Empire (03:26)
12. Star Baby (02:42)
13. Sona Sona (03:19)
14. Clap For The Wolfman (04:18)
15. Hoe Down Time (03:50)
16. Dancin' Fool (03:30)
17. Dreams (05:02)
18. When The Band Was Singin' 'Shakin' All Over' (05:49)


Exact Audio Copy V1.0 beta 6 from 9. April 2015

EAC extraction logfile from 23. April 2015, 9:13

The Guess Who / Anthology (Disc 1)

Used drive : ASUS SDRW-08D1S-U Adapter: 1 ID: 1

Read mode : Secure
Utilize accurate stream : Yes
Defeat audio cache : No
Make use of C2 pointers : No

Read offset correction

: 667
Overread into Lead-In and Lead-Out : No
Fill up missing offset samples with silence : Yes
Delete leading and trailing silent blocks : No
Null samples used in CRC calculations : Yes
Used interface
: Native Win32 interface for Win NT & 2000

Used output format : User Defined Encoder
Selected bitrate : 128 kBit/s
Quality : High
Add ID3 tag : No
Command line compressor : C:\Program Files (x86)\Exact Audio Copy\Flac\flac.exe
Additional command line options : -V -8 -T "Date=%year%" -T "Genre=%genre%" %source%

TOC of the extracted CD Track | Start | Length | Start sector | End sector
1 | 0:00.00 | 2:41.20 | 0 | 12094 2 | 2:41.20 | 2:46.00 | 12095 | 24544 3 | 5:27.20 | 3:14.32 | 24545 | 39126 4 | 8:41.52 | 3:45.45 | 39127 | 56046 5 | 12:27.22 | 3:22.38 | 56047 | 71234 6 | 15:49.60 | 2:42.30 | 71235 | 83414 7 | 18:32.15 | 5:00.52 | 83415 | 105966 8 | 23:32.67 | 3:25.03 | 105967 | 121344 9 | 26:57.70 | 3:48.37 | 121345 | 138481
10 | 30:46.32 | 4:54.00 | 138482 | 160531
11 | 35:40.32 | 5:09.50 | 160532 | 183756
12 | 40:50.07 | 4:05.40 | 183757 | 202171
13 | 44:55.47 | 3:28.18 | 202172 | 217789
14 | 48:23.65 | 2:57.17 | 217790 | 231081
15 | 51:21.07 | 3:55.30 | 231082 | 248736
16 | 55:16.37 | 3:22.33 | 248737 | 263919
17 | 58:38.70 | 3:57.00 | 263920 | 281694
18 | 62:35.70 | 2:27.02 | 281695 | 292721
19 | 65:02.72 | 3:08.63 | 292722 | 306884
20 | 68:11.60 | 3:44.32 | 306885 | 323716
21 | 71:56.17 | 5:18.30 | 323717 | 347596

Range status and errors

Selected range Filename C:\Users\Олег\Desktop\The Guess Who - Anthology\CD 1\The Guess Who - Anthology (Disc 1).wav Peak level 100.0 %
Extraction speed 6.6 X
Range quality 100.0 %
Test CRC 22BA3D30
Copy CRC 22BA3D30
Copy OK

No errors occurred


AccurateRip summary

Track 1 accurately ripped (confidence 37) [0ECA6C1A] (AR v2)
Track 2 accurately ripped (confidence 36) [5056816B] (AR v2)
Track 3 accurately ripped (confidence 36) [03F2E318] (AR v2)
Track 4 accurately ripped (confidence 36) [963A9C22] (AR v2)
Track 5 accurately ripped (confidence 36) [6C281B8F] (AR v2)
Track 6 accurately ripped (confidence 36) [3E919FA7] (AR v2)
Track 7 accurately ripped (confidence 34) [F175BCAD] (AR v2)
Track 8 accurately ripped (confidence 37) [D959EDC0] (AR v2)
Track 9 accurately ripped (confidence 34) [491E50FE] (AR v2)
Track 10 accurately ripped (confidence 35) [F57C943C] (AR v2)
Track 11 accurately ripped (confidence 36) [76414A44] (AR v2)
Track 12 accurately ripped (confidence 36) [8D3D8577] (AR v2)
Track 13 accurately ripped (confidence 35) [C66ED8AA] (AR v2)
Track 14 accurately ripped (confidence 35) [3B6E897B] (AR v2)
Track 15 accurately ripped (confidence 36) [8705730A] (AR v2)
Track 16 accurately ripped (confidence 34) [0A14AF45] (AR v2)
Track 17 accurately ripped (confidence 36) [18C1E6F0] (AR v2)
Track 18 accurately ripped (confidence 36) [281B482D] (AR v2)
Track 19 accurately ripped (confidence 36) [1D7C3E1E] (AR v2)
Track 20 accurately ripped (confidence 34) [5DC54D60] (AR v2)
Track 21 accurately ripped (confidence 32) [A346346A] (AR v2)

All tracks accurately ripped

End of status report

---- CUETools DB Plugin V2.1.6

[CTDB TOCID: GeMaihFGmtacOOKKeQPhgMcIvfo-] found
Submit result: GeMaihFGmtacOOKKeQPhgMcIvfo- has been confirmed
Track | CTDB Status
1 | (23/23) Accurately ripped
2 | (22/23) Accurately ripped
3 | (23/23) Accurately ripped
4 | (23/23) Accurately ripped
5 | (23/23) Accurately ripped
6 | (23/23) Accurately ripped
7 | (21/23) Accurately ripped
8 | (23/23) Accurately ripped
9 | (23/23) Accurately ripped
10 | (23/23) Accurately ripped
11 | (22/23) Accurately ripped
12 | (22/23) Accurately ripped
13 | (21/23) Accurately ripped
14 | (21/23) Accurately ripped
15 | (22/23) Accurately ripped
16 | (21/23) Accurately ripped
17 | (21/23) Accurately ripped
18 | (21/23) Accurately ripped
19 | (22/23) Accurately ripped
20 | (22/23) Accurately ripped
21 | (21/23) Accurately ripped

==== Log checksum 767FF1A6120D8063392041AF68F9AB673DB01BDC99E4B176437C426360A0E11C ====

foobar2000 1.2 / Dynamic Range Meter 1.1.1
log date: 2015-04-23 23:49:50

------
Analyzed: The Guess Who / Anthology (Disc 1)
------

DR Peak RMS Duration Track
------
DR11 -0.01 dB -12.72 dB 2:41 01-Shakin' All Over
DR10 -1.10 dB -11.78 dB 2:46 02-It's My Pride
DR11 -0.89 dB -14.21 dB 3:14 03-When Friends Fall Out (Single Version)
DR10 0.00 dB -12.84 dB 3:46 04-These Eyes
DR9 -0.01 dB -12.34 dB 3:23 05-A Wednesday In Your Garden
DR11 -0.01 dB -13.74 dB 2:42 06-Laughing
DR12 -0.01 dB -13.86 dB 5:01 07-6 A.M. Or Nearer
DR11 -0.45 dB -13.54 dB 3:25 08-Undun
DR10 -0.01 dB -12.66 dB 3:48 09-No Time
DR11 0.00 dB -13.39 dB 5:10 11-American Woman
DR11 -0.01 dB -12.92 dB 4:06 12-The Answer
DR10 -0.01 dB -12.19 dB 3:28 13-Hand Me Down World
DR8 -0.01 dB -11.61 dB 2:57 14-Bus Rider
DR9 -0.83 dB -12.36 dB 3:55 15-Share The Land
DR9 -0.01 dB -11.87 dB 3:22 16-Hang On To Your Life (Single Version)
DR10 0.00 dB -12.18 dB 3:57 17-Do You Miss Me Darlin'
DR12 -0.01 dB -13.16 dB 2:27 18-Albert Flasher
DR11 -0.01 dB -12.61 dB 3:09 19-Broken
DR11 -0.71 dB -14.26 dB 3:44 20-Pain Train
DR11 -1.05 dB -14.87 dB 5:18 21-Sour Suite
------

Number of tracks: 20
Official DR value: DR10

Samplerate: 44100 Hz
Channels: 2
Bits per sample: 16
Bitrate: 822 kbps
Codec: FLAC

foobar2000 1.2 / Dynamic Range Meter 1.1.1
log date: 2015-04-23 23:49:28

------
Statistics for: 10-New Mother Nature
Number of samples: 12965400
Duration: 4:54
------ Left Right

Peak Value: -0.01 dB --- -0.01 dB
Avg RMS: -14.90 dB --- -12.42 dB
DR channel: 11.60 dB --- 10.46 dB
------

Official DR Value: DR11

Samplerate: 44100 Hz
Channels: 2
Bits per sample: 16
Bitrate: 822 kbps
Codec: FLAC

Exact Audio Copy V1.0 beta 6 from 9. April 2015

EAC extraction logfile from 23. April 2015, 10:02

The Guess Who / Anthology (Disc 2)

Used drive : ASUS SDRW-08D1S-U Adapter: 1 ID: 1

Read mode : Secure
Utilize accurate stream : Yes
Defeat audio cache : No
Make use of C2 pointers : No

Read offset correction

: 667
Overread into Lead-In and Lead-Out : No
Fill up missing offset samples with silence : Yes
Delete leading and trailing silent blocks : No
Null samples used in CRC calculations : Yes
Used interface
: Native Win32 interface for Win NT & 2000

Used output format : User Defined Encoder
Selected bitrate : 128 kBit/s
Quality : High
Add ID3 tag : No
Command line compressor : C:\Program Files (x86)\Exact Audio Copy\Flac\flac.exe
Additional command line options : -V -8 -T "Date=%year%" -T "Genre=%genre%" %source%

TOC of the extracted CD Track | Start | Length | Start sector | End sector
1 | 0:00.00 | 2:46.07 | 0 | 12456 2 | 2:46.07 | 3:12.43 | 12457 | 26899 3 | 5:58.50 | 4:00.40 | 26900 | 44939 4 | 9:59.15 | 5:02.35 | 44940 | 67624 5 | 15:01.50 | 3:35.65 | 67625 | 83814 6 | 18:37.40 | 3:41.55 | 83815 | 100444 7 | 22:19.20 | 3:27.62 | 100445 | 116031 8 | 25:47.07 | 2:57.15 | 116032 | 129321 9 | 28:44.22 | 6:49.58 | 129322 | 160054
10 | 35:34.05 | 3:48.50 | 160055 | 177204
11 | 39:22.55 | 3:26.05 | 177205 | 192659
12 | 42:48.60 | 2:42.52 | 192660 | 204861
13 | 45:31.37 | 3:19.13 | 204862 | 219799
14 | 48:50.50 | 4:18.20 | 219800 | 239169
15 | 53:08.70 | 3:50.65 | 239170 | 256484
16 | 56:59.60 | 3:30.20 | 256485 | 272254
17 | 60:30.05 | 5:02.50 | 272255 | 294954
18 | 65:32.55 | 5:49.05 | 294955 | 321134

Range status and errors

Selected range Filename C:\Users\Олег\Desktop\The Guess Who - Anthology\Disc 2\The Guess Who - Anthology (Disc 2).wav Peak level 100.0 %
Extraction speed 6.6 X
Range quality 99.9 %
Test CRC 0BD73CD7
Copy CRC 0BD73CD7
Copy OK

No errors occurred


AccurateRip summary

Track 1 accurately ripped (confidence 41) [6944FC88] (AR v2)
Track 2 accurately ripped (confidence 41) [7354E0FB] (AR v2)
Track 3 accurately ripped (confidence 41) [45B28D20] (AR v2)
Track 4 accurately ripped (confidence 42) [342EFE9E] (AR v2)
Track 5 accurately ripped (confidence 43) [28245154] (AR v2)
Track 6 accurately ripped (confidence 42) [6FEDF3D0] (AR v2)
Track 7 accurately ripped (confidence 41) [9025BA19] (AR v2)
Track 8 accurately ripped (confidence 42) [44E96DF6] (AR v2)
Track 9 accurately ripped (confidence 40) [A9F58893] (AR v2)
Track 10 accurately ripped (confidence 41) [14AB6007] (AR v2)
Track 11 accurately ripped (confidence 41) [1BC531BF] (AR v2)
Track 12 accurately ripped (confidence 40) [F13EAC55] (AR v2)
Track 13 accurately ripped (confidence 38) [50D0DF90] (AR v2)
Track 14 accurately ripped (confidence 39) [47E7A7B1] (AR v2)
Track 15 accurately ripped (confidence 39) [0E88B2E9] (AR v2)
Track 16 accurately ripped (confidence 40) [26EABA56] (AR v2)
Track 17 accurately ripped (confidence 39) [42DBD5A1] (AR v2)
Track 18 accurately ripped (confidence 40) [E8C3DEEE] (AR v2)

All tracks accurately ripped

End of status report

---- CUETools DB Plugin V2.1.6

[CTDB TOCID: nPhCsC5SVQfKTPWay2sLJCT_Bno-] found
Submit result: nPhCsC5SVQfKTPWay2sLJCT_Bno- has been confirmed
Track | CTDB Status
1 | (23/23) Accurately ripped
2 | (23/23) Accurately ripped
3 | (23/23) Accurately ripped
4 | (23/23) Accurately ripped
5 | (23/23) Accurately ripped
6 | (23/23) Accurately ripped
7 | (23/23) Accurately ripped
8 | (23/23) Accurately ripped
9 | (23/23) Accurately ripped
10 | (23/23) Accurately ripped
11 | (23/23) Accurately ripped
12 | (23/23) Accurately ripped
13 | (23/23) Accurately ripped
14 | (23/23) Accurately ripped
15 | (23/23) Accurately ripped
16 | (23/23) Accurately ripped
17 | (23/23) Accurately ripped
18 | (22/23) Accurately ripped

==== Log checksum 1E7040BC467D200AFB4530855686B77A86FAD60656E12DFF2844F488C7800DEA ====

foobar2000 1.2 / Dynamic Range Meter 1.1.1
log date: 2015-04-23 23:50:12

------
Analyzed: The Guess Who / Anthology (Disc 2)
------

DR Peak RMS Duration Track
------
DR11 -0.09 dB -13.49 dB 2:46 01-Rain Dance
DR11 -0.01 dB -12.61 dB 3:13 02-Heartbroken Bopper (Single Version)
DR12 -0.01 dB -13.89 dB 4:01 03-Smoke Big Factory
DR12 -0.11 dB -14.00 dB 5:02 04-Guns, Guns, Guns
DR11 -0.01 dB -12.14 dB 3:36 05-Runnin' Back To Saskatoon (Single Version)
DR13 -0.01 dB -14.11 dB 3:42 06-Follow Your Daughter Home
DR12 -0.05 dB -13.97 dB 3:28 07-Samantha's Living Room
DR12 -0.01 dB -13.56 dB 2:57 08-Orly
DR12 -0.01 dB -13.35 dB 6:50 09-Those Show Biz Shoes
DR11 -0.01 dB -13.01 dB 3:49 10-Glamour Boy (Single Version)
DR11 -0.01 dB -13.98 dB 3:26 11-Cardboard Empire
DR12 -0.01 dB -13.08 dB 2:43 12-Star Baby
DR11 0.00 dB -13.38 dB 3:19 13-Sona Sona
DR12 -0.01 dB -12.99 dB 4:18 14-Clap For The Wolfman
DR12 -0.01 dB -14.05 dB 3:51 15-Hoe Down Time
DR11 -0.01 dB -13.21 dB 3:30 16-Dancin' Fool
DR13 -0.01 dB -16.83 dB 5:03 17-Dreams
DR12 -0.01 dB -14.68 dB 5:49 18-When The Band Was Singin' 'Shakin' All Over'
------

Number of tracks: 18
Official DR value: DR12

Samplerate: 44100 Hz
Channels: 2
Bits per sample: 16
Bitrate: 884 kbps
Codec: FLAC

http://i48.fastpic.ru/big/2015/0425/b5/d5f616f09e3c2759d12a18f682ad2ab5.jpg

http://i48.fastpic.ru/big/2015/0425/23/def59b0a5e76258b07b97e1ccbc61a23.jpg

All thanks to original releaser - Alex Fal




DOWNLOAD LINKS:
Buy Premium To Support Me & Get Resumable Support & Max Speed


Links are Interchangeable - No Password - Single Extraction

The Guess Who - Anthology (2003) 2CD Fast Download


Ad2

 
 
 
Dear visitor, you went to the site as an unregistered user. We encourage you to register or enter the site under your name.
 
   
 
 (Votes #: 0)