2013Zone For Latest Downloads

 
     
 
Legal Downloads » Music » Mozart - Die Zauberflote (Rolando Boer, Saimir Pirgu, Albina Shagimuratova) (2012) [BluRay-rip]
Menu
Home Applications
Games Movies
Music TV Shows
Torrents Graphics

Sitemap

RSS
 
Advanced Search
Last News
Site Info
Top Contributors:
  1    supper88 32766
  2    admin 32693
  3    Whisky 10080
  4    Shark_ 8911
  5    creativelivenew 8706
  6    whathesupa 2799
  7    candymypost 840
  8    hvnteam 629
  9    vuong87 3


Articles:
  This Hour: 0
  Today: 0
  This Month: 62
  All Time: 515562


Torrents:
  Today: 0
  Yesterday: 0
  All Time: 156685


Membership:
  Registered Today :0
  This Hour:0
  This Month:0
  Total:14
  Banned:1

{online}
{inform_torrent}
Friend:
We Recomend
Trend
Trend
XsAd

Search In Site

Music : Mozart - Die Zauberflote (Rolando Boer, Saimir Pirgu, Albina Shagimuratova) (2012) [BluRay-rip]
 
http://i47.fastpic.ru/big/2015/0425/97/4b5e69e8fdeff33baeffe936a55aff97.jpg

Mozart - Die Zauberflöte (Rolando Böer, Saimir Pirgu, Albina Shagimuratova) (2012) luRay-rip
Classical | BluRay-rip | AVC | MKV 1920x1080 (16:9) / 6215 kbps / 29,970 fps | 162 min | 8,82GB
Audio: German / DTS / 6ch / 48.0 KHz / 24 bits
Sub: English, French, German, Spanish, Italian

"From the Queen of the Night's vocal pyrotechnics to Papageno's chirpy birdsongs, The Magic Flute is one of Mozart's most charming and engaging operas. However, its fairytale surface conceals the mysteries of an initiation ritual and a multi-layered Description, packed with allegories to fire up the imagination. This celebrated production by artist William Kentridge joyfully bursts onto the stage of Teatro alla Scala in Milan, featuring the dazzling Russian coloratura Albina Shagimuratova as the Queen of the Night, and Italian bass Alex Esposito as Papageno, one of the most sought after artists of his generation. "

Cast:
Sarastro- Günther Groissböck
Tamino- Saimir Pirgu
Pamina-Genia Kühmeier
Queenof Night- Albina Shagimuratova
Papageno - Alex Esposito
Papagena-Ailish Tynan
Monostatos- Peter Bronder
Orchestra and Chorus of the Teatro alla Scala
Conductor- Rolando Böer

Video
ID : 1
Format
: AVC
Format/Info
: Advanced Video Codec
Format profile : [email protected]
Format settings, CABAC : Yes
Format settings, ReFrames : 2 frames
Format settings, GOP : M=3, N=24
Codec ID
: V_MPEG4/ISO/AVC
Duration
: 2h 42mn
Bit rate
: 6 215 Kbps
Width
: 1 920 pixels
Height
: 1 080 pixels
Display aspect ratio : 16:9
Frame rate mode : Constant
Frame rate
: 29.970 fps
Color space
: YUV
Chroma subsampling

: 4:2:0
Bit depth
: 8 bits
Scan type
: Progressive
Bits/(Pixel*Frame)

: 0.100
Stream size
: 6.94 GiB (79%)
Writing library : x264 core 142
Encoding settings: cabac=1 / ref=1 / deblock=1:-1:-1 / analyse=0x3:0 / me=hex / subme=5 / psy=0 / mixed_ref=0 / me_range=16 / chroma_me=1 / trellis=0 / 8x8dct=1 / cqm=0 / deadzone=21,11 / fast_pskip=1 / chroma_qp_offset=0 / threads=8 / lookahead_threads=2 / sliced_threads=0 / nr=0 / decimate=1 / interlaced=0 / bluray_compat=0 / constrained_intra=0 / bframes=2 / b_pyramid=0 / b_adapt=1 / b_bias=0 / direct=1 / weightb=1 / open_gop=0 / weightp=0 / keyint=24 / keyint_min=13 / scenecut=40 / intra_refresh=0 / rc=abr / mbtree=0 / bitrate=6215 / ratetol=1.0 / qcomp=0.60 / qpmin=0 / qpmax=69 / qpstep=4 / ip_ratio=1.40 / pb_ratio=1.30 / aq=1:1.00
Default
: Yes
Forced
: No
Color primaries : BT.709
Transfer characteristics : BT.709
Matrix coefficients

: BT.709
Color range
: Limited

Audio
ID : 2
Format
: DTS
Format/Info
: Digital Theater Systems
Mode
: 16
Format settings, Endianness : Big
Codec ID
: A_DTS
Duration
: 2h 42mn
Bit rate mode : Constant
Bit rate
: 1 509 Kbps
Channel(s)
: 6 channels
Channel positions: Front: L C R, Side: L R, LFE
Sampling rate : 48.0 KHz
Bit depth
: 24 bits
Compression mode : Lossy
Stream size
: 1.71 GiB (19%)
Language
: German
Default
: Yes
Forced
: No

Text #1
ID : 3
Format
: VobSub
Codec ID
: S_VOBSUB
Codec ID/Info : The same subtitle format used on DVDs
Language
: English
Default
: Yes
Forced
: No

Text #2
ID : 4
Format
: VobSub
Codec ID
: S_VOBSUB
Codec ID/Info : The same subtitle format used on DVDs
Language
: French
Default
: No
Forced
: No

Text #3
ID : 5
Format
: VobSub
Codec ID
: S_VOBSUB
Codec ID/Info : The same subtitle format used on DVDs
Language
: German
Default
: No
Forced
: No

Text #4
ID : 6
Format
: VobSub
Codec ID
: S_VOBSUB
Codec ID/Info : The same subtitle format used on DVDs
Language
: Italian
Default
: No
Forced
: No

Text #5
ID : 7
Format
: VobSub
Codec ID
: S_VOBSUB
Codec ID/Info : The same subtitle format used on DVDs
Language
: Spanish
Default
: No
Forced
: No

Menu
00:00:00.000 : en:Chapter 01
00:00:56.423 : en:Chapter 02
00:07:06.526 : en:Chapter 03
00:13:36.448 : en:Chapter 04
00:19:59.898 : en:Chapter 05
00:25:50.115 : en:Chapter 06
00:30:41.673 : en:Chapter 07
00:37:24.342 : en:Chapter 08
00:42:33.684 : en:Chapter 09
00:45:26.390 : en:Chapter 10
01:08:13.460 : en:Chapter 00
01:08:40.187 : en:Chapter 01
01:14:05.946 : en:Chapter 02
01:19:14.754 : en:Chapter 03
01:20:12.012 : en:Chapter 04
01:25:03.403 : en:Chapter 05
01:27:41.694 : en:Chapter 06
01:33:05.251 : en:Chapter 07
01:40:41.807 : en:Chapter 08
01:44:58.697 : en:Chapter 09
01:51:07.031 : en:Chapter 10
01:54:46.351 : en:Chapter 11
02:00:00.665 : en:Chapter 12
02:06:03.260 : en:Chapter 13
02:36:46.602 : en:Chapter 14

http://i57.fastpic.ru/big/2015/0425/4e/d899af6da1c971d7345055aafe02b14e.jpg


DOWNLOAD LINKS:
Buy Premium To Support Me & Get Resumable Support & Max Speed

Rapidgator.net:
bac0t.M.D.Z.R.B.S.P.A.S.2012.BR.part01.rar.html
bac0t.M.D.Z.R.B.S.P.A.S.2012.BR.part02.rar.html
bac0t.M.D.Z.R.B.S.P.A.S.2012.BR.part03.rar.html
bac0t.M.D.Z.R.B.S.P.A.S.2012.BR.part04.rar.html
bac0t.M.D.Z.R.B.S.P.A.S.2012.BR.part05.rar.html
bac0t.M.D.Z.R.B.S.P.A.S.2012.BR.part06.rar.html
bac0t.M.D.Z.R.B.S.P.A.S.2012.BR.part07.rar.html
bac0t.M.D.Z.R.B.S.P.A.S.2012.BR.part08.rar.html
bac0t.M.D.Z.R.B.S.P.A.S.2012.BR.part09.rar.html
bac0t.M.D.Z.R.B.S.P.A.S.2012.BR.part10.rar.html
bac0t.M.D.Z.R.B.S.P.A.S.2012.BR.part11.rar.html
bac0t.M.D.Z.R.B.S.P.A.S.2012.BR.part12.rar.html
bac0t.M.D.Z.R.B.S.P.A.S.2012.BR.part13.rar.html
bac0t.M.D.Z.R.B.S.P.A.S.2012.BR.part14.rar.html
bac0t.M.D.Z.R.B.S.P.A.S.2012.BR.part15.rar.html
bac0t.M.D.Z.R.B.S.P.A.S.2012.BR.part16.rar.html
bac0t.M.D.Z.R.B.S.P.A.S.2012.BR.part17.rar.html
bac0t.M.D.Z.R.B.S.P.A.S.2012.BR.part18.rar.html

Uploadable.ch:
bac0t.M.D.Z.R.B.S.P.A.S.2012.BR.part01.rar
bac0t.M.D.Z.R.B.S.P.A.S.2012.BR.part02.rar
bac0t.M.D.Z.R.B.S.P.A.S.2012.BR.part03.rar
bac0t.M.D.Z.R.B.S.P.A.S.2012.BR.part04.rar
bac0t.M.D.Z.R.B.S.P.A.S.2012.BR.part05.rar
bac0t.M.D.Z.R.B.S.P.A.S.2012.BR.part06.rar
bac0t.M.D.Z.R.B.S.P.A.S.2012.BR.part07.rar
bac0t.M.D.Z.R.B.S.P.A.S.2012.BR.part08.rar
bac0t.M.D.Z.R.B.S.P.A.S.2012.BR.part09.rar
bac0t.M.D.Z.R.B.S.P.A.S.2012.BR.part10.rar
bac0t.M.D.Z.R.B.S.P.A.S.2012.BR.part11.rar
bac0t.M.D.Z.R.B.S.P.A.S.2012.BR.part12.rar
bac0t.M.D.Z.R.B.S.P.A.S.2012.BR.part13.rar
bac0t.M.D.Z.R.B.S.P.A.S.2012.BR.part14.rar
bac0t.M.D.Z.R.B.S.P.A.S.2012.BR.part15.rar
bac0t.M.D.Z.R.B.S.P.A.S.2012.BR.part16.rar
bac0t.M.D.Z.R.B.S.P.A.S.2012.BR.part17.rar
bac0t.M.D.Z.R.B.S.P.A.S.2012.BR.part18.rar

Turbobit.net:
bac0t.M.D.Z.R.B.S.P.A.S.2012.BR.part01.rar.html
bac0t.M.D.Z.R.B.S.P.A.S.2012.BR.part02.rar.html
bac0t.M.D.Z.R.B.S.P.A.S.2012.BR.part03.rar.html
bac0t.M.D.Z.R.B.S.P.A.S.2012.BR.part04.rar.html
bac0t.M.D.Z.R.B.S.P.A.S.2012.BR.part05.rar.html
bac0t.M.D.Z.R.B.S.P.A.S.2012.BR.part06.rar.html
bac0t.M.D.Z.R.B.S.P.A.S.2012.BR.part07.rar.html
bac0t.M.D.Z.R.B.S.P.A.S.2012.BR.part08.rar.html
bac0t.M.D.Z.R.B.S.P.A.S.2012.BR.part09.rar.html
bac0t.M.D.Z.R.B.S.P.A.S.2012.BR.part10.rar.html
bac0t.M.D.Z.R.B.S.P.A.S.2012.BR.part11.rar.html
bac0t.M.D.Z.R.B.S.P.A.S.2012.BR.part12.rar.html
bac0t.M.D.Z.R.B.S.P.A.S.2012.BR.part13.rar.html
bac0t.M.D.Z.R.B.S.P.A.S.2012.BR.part14.rar.html
bac0t.M.D.Z.R.B.S.P.A.S.2012.BR.part15.rar.html
bac0t.M.D.Z.R.B.S.P.A.S.2012.BR.part16.rar.html
bac0t.M.D.Z.R.B.S.P.A.S.2012.BR.part17.rar.html
bac0t.M.D.Z.R.B.S.P.A.S.2012.BR.part18.rar.html

Uploaded.net:
bac0t.M.D.Z.R.B.S.P.A.S.2012.BR.part01.rar
bac0t.M.D.Z.R.B.S.P.A.S.2012.BR.part02.rar
bac0t.M.D.Z.R.B.S.P.A.S.2012.BR.part03.rar
bac0t.M.D.Z.R.B.S.P.A.S.2012.BR.part04.rar
bac0t.M.D.Z.R.B.S.P.A.S.2012.BR.part05.rar
bac0t.M.D.Z.R.B.S.P.A.S.2012.BR.part06.rar
bac0t.M.D.Z.R.B.S.P.A.S.2012.BR.part07.rar
bac0t.M.D.Z.R.B.S.P.A.S.2012.BR.part08.rar
bac0t.M.D.Z.R.B.S.P.A.S.2012.BR.part09.rar
bac0t.M.D.Z.R.B.S.P.A.S.2012.BR.part10.rar
bac0t.M.D.Z.R.B.S.P.A.S.2012.BR.part11.rar
bac0t.M.D.Z.R.B.S.P.A.S.2012.BR.part12.rar
bac0t.M.D.Z.R.B.S.P.A.S.2012.BR.part13.rar
bac0t.M.D.Z.R.B.S.P.A.S.2012.BR.part14.rar
bac0t.M.D.Z.R.B.S.P.A.S.2012.BR.part15.rar
bac0t.M.D.Z.R.B.S.P.A.S.2012.BR.part16.rar
bac0t.M.D.Z.R.B.S.P.A.S.2012.BR.part17.rar
bac0t.M.D.Z.R.B.S.P.A.S.2012.BR.part18.rar

Links are Interchangeable - No Password - Single Extraction

Mozart - Die Zauberflote (Rolando Boer, Saimir Pirgu, Albina Shagimuratova) (2012) [BluRay-rip] Fast Download


XsAd2

 
 
 
Dear visitor, you went to the site as an unregistered user. We encourage you to register or enter the site under your name.
 
   
 
 (Votes #: 0)