2013Zone For Latest Downloads

 
     
 
Legal Downloads » Music » Keith Jarrett - Bop-Be (1976) {2013 Japan Jazz The Best Series 24-bit Remaster}
Menu
Home Applications
Games Movies
Music TV Shows
Torrents Graphics

Sitemap

RSS
 
Advanced Search
Last News
Site Info
Top Contributors:
  1    supper88 32766
  2    admin 32683
  3    Whisky 10080
  4    Shark_ 8911
  5    creativelivenew 8706
  6    whathesupa 2799
  7    candymypost 840
  8    hvnteam 629
  9    vuong87 3


Articles:
  This Hour: 0
  Today: 20
  This Month: 52
  All Time: 515553


Torrents:
  Today: 0
  Yesterday: 0
  All Time: 156676


Membership:
  Registered Today :0
  This Hour:0
  This Month:0
  Total:14
  Banned:1

{online}
{inform_torrent}
Friend:
Download Nulled Scripts
Torrent Download
Trend
Trend
VPN_ad

Search In Site

Music : Keith Jarrett - Bop-Be (1976) {2013 Japan Jazz The Best Series 24-bit Remaster}
 

http://i47.fastpic.ru/big/2015/0425/f6/7edb515f04107b4fde7742fe5d52caf6.jpg
Keith Jarrett - Bop-Be (1976) {2013 Japan Jazz The Best Series 24-bit Remaster}
EAC rip (secure mode) | FLAC (tracks)+CUE+LOG -> 265 Mb | MP3 @320 -> 95 Mb
Full Artwork @ 600 dpi (png) -> 158 Mb | 5% repair rar | 24-bit remaster
© 2013 Impulse! / Verve / Universal Japan | UCCU-9991
Jazz / Post Bop / Piano

"Here is another LP helping from the Keith Jarrett "American" Quartet's last recording session -- one that is almost as consistent in quality as its predecessor. The happy-go-lucky groove of the title track perfectly expresses its name, with Jarrett blithely singing along; both Dewey Redman and Charlie Haden get plenty of solo space on Redman's "Gotta Get Some Sleep" and Haden's "Pocket Full of Cherry" (a pun referring to Haden cohort Don Cherry); and Paul Motian remains a marvelously flexible drummer. Moreover, there is another fascinating swatch of Middle Eastern experimentation on "Pyramids Moving.""

http://i48.fastpic.ru/big/2015/0425/e6/8815478643be3008e70dc23d863c6ee6.jpg

"Bop-Be is the final album on the Impulse label by jazz pianist Keith Jarrett's 'American Quartet'. Originally released in 1977 it features performances by Jarrett, Dewey Redman, Charlie Haden, and Paul Motian. It is the last album recorded by the American Quartet and the final album Jarrett released on a label other than ECM."


Personnel:
Keith Jarrett - piano, soprano saxophone, percussion
Dewey Redman - tenor saxophone, musette
Charlie Haden - bass
Paul Motian - drums, percussion

tracklist:
01 - Mushi Mushi
02 - Silence
03 - Bop-Be
04 - Pyramids Moving
05 - Gotta Get Some Sleep
06 - Blackberry Winter
07 - Pocket Full Of Cherry

Exact Audio Copy V1.0 beta 4 from 7. December 2014

EAC extraction logfile from 23. April 2015, 10:03

Keith Jarrett / Bop-Be

Used drive : TSSTcorpCDDVDW SE-208DB Adapter: 1 ID: 1

Read mode : Secure
Utilize accurate stream : Yes
Defeat audio cache : Yes
Make use of C2 pointers : No

Read offset correction

: 6
Overread into Lead-In and Lead-Out : No
Fill up missing offset samples with silence : Yes
Delete leading and trailing silent blocks : No
Null samples used in CRC calculations : Yes
Used interface
: Native Win32 interface for Win NT & 2000
Gap handling
: Appended to previous track

Used output format : User Defined Encoder
Selected bitrate : 1024 kBit/s
Quality : High
Add ID3 tag : No
Command line compressor : C:\Program Files (x86)\FLAC Frontend\tools\flac.exe
Additional command line options : -8 -V -T "ARTIST=%artist%" -T "TITLE=%title%" -T "ALBUM=%albumtitle%" -T "DATE=%year%" -T "TRACKNUMBER=%tracknr%" -T "TOTALTRACKS=%numtracks%" -T "GENRE=%genre%" -T "ALBUMARTIST=%albumartist%" -T "ALBUM ARTIST=%albumartist%" -T "COMMENT=EAC Secure Mode, Test & Copy, AccurateRip, FLAC -8" %source%

TOC of the extracted CD Track | Start | Length | Start sector | End sector
1 | 0:00.00 | 6:03.12 | 0 | 27236 2 | 6:03.12 | 3:16.50 | 27237 | 41986 3 | 9:19.62 | 6:59.25 | 41987 | 73436 4 | 16:19.12 | 3:41.00 | 73437 | 90011 5 | 20:00.12 | 10:35.45 | 90012 | 137681 6 | 30:35.57 | 3:38.05 | 137682 | 154036 7 | 34:13.62 | 5:17.38 | 154037 | 177849

Track 1 Filename D:\_EAC\Keith Jarrett - Bop-Be (1976) [FLAC] {2013 Japan Jazz The Best Series 24-bit Remaster}\01 - Mushi Mushi.wav Pre-gap length 0:00:02.00 Peak level 93.4 %
Extraction speed 1.1 X
Track quality 100.0 %
Test CRC 847A5A03
Copy CRC 847A5A03
Accurately ripped (confidence 2) [F121C314] (AR v2)
Copy OK

Track 2 Filename D:\_EAC\Keith Jarrett - Bop-Be (1976) [FLAC] {2013 Japan Jazz The Best Series 24-bit Remaster}\02 - Silence.wav Pre-gap length 0:00:02.24 Peak level 49.9 %
Extraction speed 1.1 X
Track quality 100.0 %
Test CRC DE6D6B3F
Copy CRC DE6D6B3F
Accurately ripped (confidence 2) [25F125E2] (AR v2)
Copy OK

Track 3 Filename D:\_EAC\Keith Jarrett - Bop-Be (1976) [FLAC] {2013 Japan Jazz The Best Series 24-bit Remaster}\03 - Bop-Be.wav Pre-gap length 0:00:04.19 Peak level 85.7 %
Extraction speed 1.3 X
Track quality 100.0 %
Test CRC 5B8C3ED2
Copy CRC 5B8C3ED2
Accurately ripped (confidence 2) 33CCC54 (AR v2)
Copy OK

Track 4 Filename D:\_EAC\Keith Jarrett - Bop-Be (1976) [FLAC] {2013 Japan Jazz The Best Series 24-bit Remaster}\04 - Pyramids Moving.wav Pre-gap length 0:00:02.51 Peak level 58.6 %
Extraction speed 1.3 X
Track quality 100.0 %
Test CRC E9FD5BCA
Copy CRC E9FD5BCA
Accurately ripped (confidence 2) [DAD11E72] (AR v2)
Copy OK

Track 5 Filename D:\_EAC\Keith Jarrett - Bop-Be (1976) [FLAC] {2013 Japan Jazz The Best Series 24-bit Remaster}\05 - Gotta Get Some Sleep.wav Pre-gap length 0:00:02.51 Peak level 97.1 %
Extraction speed 1.6 X
Track quality 100.0 %
Test CRC 8FD82BED
Copy CRC 8FD82BED
Accurately ripped (confidence 2) [1580EECB] (AR v2)
Copy OK

Track 6 Filename D:\_EAC\Keith Jarrett - Bop-Be (1976) [FLAC] {2013 Japan Jazz The Best Series 24-bit Remaster}\06 - Blackberry Winter.wav Pre-gap length 0:00:02.19 Peak level 82.8 %
Extraction speed 1.5 X
Track quality 100.0 %
Test CRC 242749F3
Copy CRC 242749F3
Accurately ripped (confidence 2) [EC10CA51] (AR v2)
Copy OK

Track 7 Filename D:\_EAC\Keith Jarrett - Bop-Be (1976) [FLAC] {2013 Japan Jazz The Best Series 24-bit Remaster}\07 - Pocket Full Of Cherry.wav Pre-gap length 0:00:00.66 Peak level 81.7 %
Extraction speed 1.6 X
Track quality 100.0 %
Test CRC 1AAC3B03
Copy CRC 1AAC3B03
Accurately ripped (confidence 2) [C489D1A1] (AR v2)
Copy OK

All tracks accurately ripped

No errors occurred

End of status report

==== Log checksum D71EB5DACF06D711A2A714EA6E3478FD64A09F4F8DBD1DE62E76738F43B86AA4 ====

http://i58.fastpic.ru/big/2015/0425/d0/a4f47a6cdc15a0a74af19b9f4674ded0.jpg

http://i48.fastpic.ru/big/2015/0425/bb/aa1bef197127c52fbad4cf4430e3c0bb.jpg

DOWNLOAD LINKS:
Buy Premium To Support Me & Get Resumable Support & Max Speed


Links are Interchangeable - No Password - Single Extraction

Keith Jarrett - Bop-Be (1976) {2013 Japan Jazz The Best Series 24-bit Remaster} Fast Download


Cheap VPN

 
 
 
Dear visitor, you went to the site as an unregistered user. We encourage you to register or enter the site under your name.
 
   
 
 (Votes #: 0)