2013Zone For Latest Downloads

 
     
 
Legal Downloads » Music » Charles Mingus - Mingus Plays Piano (1963/1997) {Impulse}
Menu
Home Applications
Games Movies
Music TV Shows
Torrents Graphics

Sitemap

RSS
 
Advanced Search
Last News
Site Info
Top Contributors:
  1    supper88 32766
  2    admin 32683
  3    Whisky 10080
  4    Shark_ 8911
  5    creativelivenew 8706
  6    whathesupa 2799
  7    candymypost 840
  8    hvnteam 629
  9    vuong87 3


Articles:
  This Hour: 0
  Today: 0
  This Month: 52
  All Time: 515552


Torrents:
  Today: 0
  Yesterday: 0
  All Time: 156675


Membership:
  Registered Today :0
  This Hour:0
  This Month:0
  Total:14
  Banned:1

{online}
{inform_torrent}
Friend:
Nulled Script Download
Torrent Download
Trend
Trend
VPN_ad

Search In Site

Music : Charles Mingus - Mingus Plays Piano (1963/1997) {Impulse}
 
http://i47.fastpic.ru/big/2015/0507/61/363321140f320aca13d74dcb40e81c61.jpg

Charles Mingus - Mingus Plays Piano (1963/1997) {Impulse}
EAC 1.0b3 | FLAC tracks level 8 | Cue+Log+M3U | Full Scans 300dpi | 291MB + 5% Recovery
MP3 CBR 320 Kbps | 172MB + 5% Recovery
Genre: Jazz

"On this brilliant 1963 release, bassist and composer extraordinaire Charles Mingus delivers a fiery, startling imaginative album of solo piano takes of his compositions, free improvisations, and jazz standards. Included are covers of "Body and Soul" and "I Can't Get Started," as well as originals such as "Orange Was the Color of Her Dress, Then Silk Blues." The classic 1963 release by one of jazz's great revolutionaries is a great insight into the imagination of one of the most imaginative and prolific jazz musicians of the 20th Century."

"On this brilliant 1963 release, bassist and composer extraordinaire Charles Mingus delivers a fiery, startling imaginative album of solo piano takes of his compositions, free improvisations, and jazz standards. Included are covers of "Body and Soul" and "I Can't Get Started," as well as originals such as "Orange Was the Color of Her Dress, Then Silk Blues." The classic 1963 release by one of jazz's great revolutionaries is a great insight into the imagination of one of the most imaginative and prolific jazz musicians of the 20th Century."

Track List
01. Myself When I Am Real 7:35
02. I Can't Get Started 3:40
03. Body And Soul 4:31
04. Roland Kirk's Message 2:40
05. Memories Of You 4:35
06. She's Just Miss Popular Hybrid 3:08
07. Orange Was The Color Of Her Dress, Then Silk Blues 4:13
08. Meditations For Moses 3:38
09. Old Portrait 3:45
10. I'm Getting Sentimental Over You 3:43
11. Compositional Theme Story: Medleys, Anthems And Folklore 8:35

Recorded at RCA Studios, New York on July 30, 1963.
Originally released in 1963

Charles Mingus - solo piano

Produced by Bob Thiele

Exact Audio Copy V1.0 beta 3 from 29. August 2011

EAC extraction logfile from 4. April 2015, 10:24

Charles Mingus / Mingus Plays Piano

Used drive : HL-DT-STDVD+-RW GT80N Adapter: 0 ID: 0

Read mode : Secure
Utilize accurate stream : Yes
Defeat audio cache : Yes
Make use of C2 pointers : No

Read offset correction

: 102
Overread into Lead-In and Lead-Out : No
Fill up missing offset samples with silence : Yes
Delete leading and trailing silent blocks : No
Null samples used in CRC calculations : Yes
Used interface
: Native Win32 interface for Win NT & 2000
Gap handling
: Appended to previous track

Used output format : User Defined Encoder
Selected bitrate : 128 kBit/s
Quality : High
Add ID3 tag : No
Command line compressor : C:\Program Files (x86)\Exact Audio Copy\FLAC\FLAC.EXE
Additional command line options : -8 -V -T "ARTIST=%artist%" -T "TITLE=%title%" -T "ALBUM=%albumtitle%" -T "DATE=%year%" -T "TRACKNUMBER=%tracknr%" -T "TOTALTRACKS=%numtracks%" -T "GENRE=%genre%" -T "ALBUMARTIST=%albumartist%" -T "ALBUM ARTIST=%albumartist%" -T "COMMENT=EAC Secure Mode, Test & Copy, AccurateRip, FLAC -8" %source%

TOC of the extracted CD Track | Start | Length | Start sector | End sector
1 | 0:00.00 | 7:38.20 | 0 | 34369 2 | 7:38.20 | 3:43.55 | 34370 | 51149 3 | 11:22.00 | 4:34.57 | 51150 | 71756 4 | 15:56.57 | 2:43.05 | 71757 | 83986 5 | 18:39.62 | 4:38.43 | 83987 | 104879 6 | 23:18.30 | 3:11.47 | 104880 | 119251 7 | 26:30.02 | 4:16.60 | 119252 | 138511 8 | 30:46.62 | 3:41.68 | 138512 | 155154 9 | 34:28.55 | 3:48.20 | 155155 | 172274
10 | 38:17.00 | 3:46.40 | 172275 | 189264
11 | 42:03.40 | 8:35.62 | 189265 | 227951

Track 1 Filename C:\Users\porcupine\Desktop\EAC\01 - Myself When I Am Real.wav Pre-gap length 0:00:02.00 Peak level 100.0 %
Extraction speed 3.0 X
Track quality 100.0 %
Test CRC 7FFEC12D
Copy CRC 7FFEC12D
Accurately ripped (confidence 4) [5D286B34] (AR v2)
Copy OK

Track 2 Filename C:\Users\porcupine\Desktop\EAC\02 - I Can't Get Started.wav Pre-gap length 0:00:02.38 Peak level 72.5 %
Extraction speed 2.6 X
Track quality 99.9 %
Test CRC 8F722F6F
Copy CRC 8F722F6F
Accurately ripped (confidence 4) [199AA0D3] (AR v2)
Copy OK

Track 3 Filename C:\Users\porcupine\Desktop\EAC\03 - Body And Soul.wav Pre-gap length 0:00:02.50 Peak level 64.7 %
Extraction speed 3.5 X
Track quality 100.0 %
Test CRC 1D2DAA4D
Copy CRC 1D2DAA4D
Accurately ripped (confidence 4) [8341167F] (AR v2)
Copy OK

Track 4 Filename C:\Users\porcupine\Desktop\EAC\04 - Roland Kirk's Message.wav Pre-gap length 0:00:02.72 Peak level 91.7 %
Extraction speed 3.4 X
Track quality 100.0 %
Test CRC CDAEF060
Copy CRC CDAEF060
Accurately ripped (confidence 4) [D696A4E1] (AR v2)
Copy OK

Track 5 Filename C:\Users\porcupine\Desktop\EAC\05 - Memories Of You.wav Pre-gap length 0:00:02.32 Peak level 78.4 %
Extraction speed 3.3 X
Track quality 99.9 %
Test CRC 79C4E468
Copy CRC 79C4E468
Accurately ripped (confidence 4) [E628C881] (AR v2)
Copy OK

Track 6 Filename C:\Users\porcupine\Desktop\EAC\06 - She's Just Miss Popular Hybrid.wav Pre-gap length 0:00:03.08 Peak level 71.6 %
Extraction speed 3.9 X
Track quality 100.0 %
Test CRC 1C7D7551
Copy CRC 1C7D7551
Accurately ripped (confidence 4) [6EE1AC6D] (AR v2)
Copy OK

Track 7 Filename C:\Users\porcupine\Desktop\EAC\07 - Orange Was The Color Of Her Dress, Then Silk Blues.wav Pre-gap length 0:00:03.10 Peak level 97.5 %
Extraction speed 4.0 X
Track quality 100.0 %
Test CRC 248EBAC1
Copy CRC 248EBAC1
Accurately ripped (confidence 4) [6FE91E4E] (AR v2)
Copy OK

Track 8 Filename C:\Users\porcupine\Desktop\EAC\08 - Meditations For Moses.wav Pre-gap length 0:00:02.47 Peak level 98.0 %
Extraction speed 3.9 X
Track quality 100.0 %
Test CRC 42F0F1DD
Copy CRC 42F0F1DD
Accurately ripped (confidence 4) [014622C0] (AR v2)
Copy OK

Track 9 Filename C:\Users\porcupine\Desktop\EAC\09 - Old Portrait.wav Pre-gap length 0:00:02.65 Peak level 84.5 %
Extraction speed 3.8 X
Track quality 100.0 %
Test CRC 67C23E0D
Copy CRC 67C23E0D
Accurately ripped (confidence 4) 0DD8ACF (AR v2)
Copy OK

Track 10 Filename C:\Users\porcupine\Desktop\EAC\10 - I'm Getting Sentimental Over You.wav Pre-gap length 0:00:02.58 Peak level 74.3 %
Extraction speed 4.0 X
Track quality 100.0 %
Test CRC FC3F678A
Copy CRC FC3F678A
Accurately ripped (confidence 4) [CA78B006] (AR v2)
Copy OK

Track 11 Filename C:\Users\porcupine\Desktop\EAC\11 - Compositional Theme Story- Medleys, Anthems And Folklore.wav Pre-gap length 0:00:02.45 Peak level 90.7 %
Extraction speed 4.6 X
Track quality 100.0 %
Test CRC FB4A2A85
Copy CRC FB4A2A85
Accurately ripped (confidence 4) [65A53288] (AR v2)
Copy OK

All tracks accurately ripped

No errors occurred

End of status report

==== Log checksum A5D8E64FC58A46BB49D6A4216A369D9B2094C1D8474CBD7BCB510E3D914A3CBA ====

------
Analyzed: Charles Mingus / Mingus Plays Piano
------

DR Peak RMS Duration Track
------
DR11 0.00 dB -15.78 dB 7:38 01-Myself When I Am Real
DR12 -2.79 dB -17.68 dB 3:44 02-I Can't Get Started
DR13 -3.77 dB -19.81 dB 4:35 03-Body And Soul
DR11 -0.75 dB -14.96 dB 2:43 04-Roland Kirk's Message
DR13 -2.10 dB -18.45 dB 4:39 05-Memories Of You
DR12 -2.90 dB -18.10 dB 3:12 06-She's Just Miss Popular Hybrid
DR12 -0.22 dB -16.86 dB 4:17 07-Orange Was The Color Of Her Dress, Then Silk Blues
DR12 -0.17 dB -16.88 dB 3:42 08-Meditations For Moses
DR13 -1.46 dB -17.84 dB 3:48 09-Old Portrait
DR14 -2.57 dB -19.60 dB 3:47 10-I'm Getting Sentimental Over You
DR14 -0.85 dB -19.50 dB 8:36 11-Compositional Theme Story: Medleys, Anthems And Folklore
------

Number of tracks: 11
Official DR value: DR12

Samplerate: 44100 Hz
Channels: 2
Bits per sample: 16
Bitrate: 650 kbps
Codec: FLAC

http://i59.fastpic.ru/big/2015/0507/91/fe2d71664a32dd41dcc1144f7206be91.jpg

http://i60.fastpic.ru/big/2015/0507/76/4b974e8b2c90800e39c632f1f98cc076.jpg



DOWNLOAD LINKS:
Buy Premium To Support Me & Get Resumable Support & Max Speed


Links are Interchangeable - No Password - Single Extraction

Charles Mingus - Mingus Plays Piano (1963/1997) {Impulse} Fast Download


Cheap VPN

 
 
 
Dear visitor, you went to the site as an unregistered user. We encourage you to register or enter the site under your name.
 
   
 
 (Votes #: 0)