2013Zone For Latest Downloads

 
     
 
Legal Downloads » Music » Bullets To Broadway - Drink Positive (2005)
Menu
Home Applications
Games Movies
Music TV Shows
Torrents Graphics

Sitemap

RSS
 
Advanced Search
Last News
Site Info
Top Contributors:
  1    supper88 32766
  2    admin 32693
  3    Whisky 10080
  4    Shark_ 8911
  5    creativelivenew 8706
  6    whathesupa 2799
  7    candymypost 840
  8    hvnteam 629
  9    vuong87 3


Articles:
  This Hour: 0
  Today: 0
  This Month: 62
  All Time: 515562


Torrents:
  Today: 0
  Yesterday: 0
  All Time: 156685


Membership:
  Registered Today :0
  This Hour:0
  This Month:0
  Total:14
  Banned:1

{online}
{inform_torrent}
Friend:
We Recomend
Trend
Trend
XsAd

Search In Site

Music : Bullets To Broadway - Drink Positive (2005)
 

http://i59.fastpic.ru/big/2015/0507/e9/8ee4a9b51c172353eb98230ec3469de9.jpg
Bullets To Broadway - Drink Positive (2005)
FLAC+CUE+LOG or MP3 CBR 320 | Complete Scanwork | 212 or 101 MB

Bullets To Broadway were a short lived project of former members of the Teen Idols, Rehasher and Army of Ponch. "Drink Positive" is their debut and only one album released in 2005 on Red Scare label. Their sound combines Nashville with Gainesville for an aggressive punk rock hybrid with sweet melodies and nice male-female vocal harmonies. Produced by Roger Manganelli of Less Than Jake.
Tracklist:

01. Happily Ever After
02. Stickin In The Middle
03. Greyhound
04. Paychecks
05. Let It Go
06. The Whole World Lost Its Head
07. Down And Out
08. Our Club, Our Home, Our Kelly

all songs by Bullet To Broadway except "6" by Valentine/Wiedlin

Exact Audio Copy V1.0 beta 6 from 9. April 2015

EAC extraction logfile from 5. May 2015, 18:06

Bullets To Broadway / Drink Positive

Used drive : ASUS DRW-24B1ST Adapter: 1 ID: 0

Read mode : Secure
Utilize accurate stream : Yes
Defeat audio cache : Yes
Make use of C2 pointers : No

Read offset correction

: 6
Overread into Lead-In and Lead-Out : No
Fill up missing offset samples with silence : Yes
Delete leading and trailing silent blocks : No
Null samples used in CRC calculations : Yes
Used interface
: Native Win32 interface for Win NT & 2000

Used output format : Internal WAV Routines
Sample format : 44.100 Hz; 16 Bit; Stereo

TOC of the extracted CD Track | Start | Length | Start sector | End sector
1 | 0:00.00 | 2:49.34 | 0 | 12708 2 | 2:49.34 | 3:05.56 | 12709 | 26639 3 | 5:55.15 | 0:37.70 | 26640 | 29484 4 | 6:33.10 | 2:30.35 | 29485 | 40769 5 | 9:03.45 | 2:43.02 | 40770 | 52996 6 | 11:46.47 | 2:35.70 | 52997 | 64691 7 | 14:22.42 | 2:59.50 | 64692 | 78166 8 | 17:22.17 | 3:10.65 | 78167 | 92481

Range status and errors

Selected range Filename F:\_AvaxHome__Rehabilly\Bullets To Broadway - Drink Positive (2005)\Bullets To Broadway - Drink Positive (CCCP 107-2).wav Peak level 92.6 %
Extraction speed 5.8 X
Range quality 99.9 %
Test CRC A202B162
Copy CRC A202B162
Copy OK

No errors occurred


AccurateRip summary

Track 1 accurately ripped (confidence 3) [67810831] (AR v1)
Track 2 accurately ripped (confidence 3) B54C793 (AR v1)
Track 3 accurately ripped (confidence 3) [002038F7] (AR v1)
Track 4 accurately ripped (confidence 3) DCC38E8 (AR v1)
Track 5 accurately ripped (confidence 3) [182F1D33] (AR v1)
Track 6 accurately ripped (confidence 3) [147B526A] (AR v1)
Track 7 accurately ripped (confidence 3) [93CDA1CF] (AR v1)
Track 8 accurately ripped (confidence 3) [5D94AE92] (AR v1)

All tracks accurately ripped

End of status report

==== Log checksum C5306D1A943B183B48C9BADE32538474B106EBC00C269EFAC06D6C349884991C ====

Produced by Roger Lima Manganelli
Recorded in September 2005 at The Moat House, Gainsville, Florida
Mastered by John Greenham.

* Kevin Sierzega - vocals
* Heather Tabor - bass, vocals
* Gui Amador - guitar
* Ryan Geis - guitar, vocals
* Matt Yonker - drums

Release Date: November 8, 2005
Label: Red Scare Industries
Catalog No.: CCCP 107-2
DOWNLOAD LINKS:
Buy Premium To Support Me & Get Resumable Support & Max Speed


Links are Interchangeable - No Password - Single Extraction

Bullets To Broadway - Drink Positive (2005) Fast Download


XsAd2

 
 
 
Dear visitor, you went to the site as an unregistered user. We encourage you to register or enter the site under your name.
 
   
 
 (Votes #: 0)